&title=Alexandrite
&artist=onoken
&first=0
&des=Dream
&lv_5=14
&inote_5=(175),,,,
{8}5h/4h,,,3h/4h,,,6h/5h,,,5h/2h,,,7h/4h,6,5,4,3h/5h,,,2h/Ch[384:1],,,7h/Ch[384:1],,,8h/1h,,2h/7h,,5h/3h,
{16}4,5,6,7,
{8}84,,,B3/Ch[384:1],,,E7/Ch[384:1],,,D2/Ch[384:1],,,D6/Ch[384:1],E7,E8,E1,E2/Ch[384:1],
,,Ch[384:1]/E5,,,E1/Ch[384:1],,,E7/E3,,Ch[384:1],,27,27,,3V17[4:2],,5,5,B5,,6V47[8:3],,2,1V38[8:3],,,B7,,
{16}7,6,5,4,3V57[4:2],,,,
{8}2,2,B2,,3V52[8:3],,7,8V61[8:3],,8,,,
{16}2,3,4,5,6V41[4:2],,,,
{8}8,8,B8,,6V47[8:3],,2,3V52[8:3],,,E8,,
{16}7,6,5,4,3V58[4:2],,,,
{8}2,2,B2,,3V51[8:4],,7,6-2[8:1]b,,6b,,
{24},,,8,1,2,3,4,5,
{8}6/8b-4[8:1],,1-6[8:1],2,3xv8[8:1]/1x,,3,5>2[8:1],6,7,8<5[8:1],,8>3[16:3]/1,,
{16}4,5,6,7,8/4x-8[8:1],,,,
{8}5-2[8:1],6,7xv4[8:1]/5x,,7,1<6[8:1],2,3,4>1[8:1],,5/4<7[16:3],,
{16}8,1,2,3,
{8}4/8x-4[8:1],,8,2,2x-8[8:1],,2,6>3[8:1],7,8,1<6[8:1],,1>4[16:3]/2,,
{16}5,6,7,8,
{8}1/5x-1[8:1],,5,7,7x-5[8:1],,7,1,26,37,48,15,
{12}E1,E8,E7,1x,2x,3x,
{8}4x-2[8:1],5,5,6-4[8:1],7,8,
{16}8,7,6,5,4>8[4:1]/E1,E8,E7,E6,E5,E4,E3,E2,
{8}E1/5-7[8:1],4,4,3-5[8:1],2,
{16}1,,1,2,3,4,5V71[4:1]/E1,E2,E3,E4,E5,E6,E7,E8,
{4}E1/4x-2[8:1],7p3[8:1]/4,1-5[8:1]/7,
{8}8>3[8:1]b,7,6-1[8:1]b,5,4,3,
{16}6,5,7,4,8,3,1,2,
{32}8x,7x,6x,5x,4x/8xz4[8:17]b,1x,2x,3x,
{4}4xb/8xbs4[4:8],,,,,,,,,,
{8}7bv5>4V68[4:2],,1,,C,,3v1<8V24[4:2]b,,5,,6,,C,,
{32}A7,D7,A6,D6,A5,D5,A4,D4,A3/1-4[8:1]*-6[8:1],,,,,,,,
{8}1,,2v8<7V13[4:2]/C,,4,,5,,6-2[8:1],,2-6[8:1]b,,,,3v5<6V42[4:2]b,,7,,C,,1v7<6V82[4:2],,2,,3,,C,,4h[4:1],,E1,E2,E3,E4,15,26,37,4p7[8:3]`8p3[8:3]b,15,,,,,Cf,,,2-6v5-3[4:2],,7,7,B7,,8-4v5-7[4:2]b,,1,1,,2,E3,E7,
{16}A3,A4,A5,A6,Ch[8:1],,,,
{8}8,7,6xv8[8:1],,2-6v5-3[4:2]b,,1,1,8>2[8:1],,8-5[8:1]*-6[8:1],,,,3-7v8-2[4:2],,4,4,B4,,6-2v1-7[4:2]b,,5,5,,4,,3h[8:3],,,4-1[8:1],4,5,6,7-4[8:1],7,1-7[8:1],2-4[8:1],1-5[8:1],2-6[8:1],1,2,,Cf,,,
{16}3,5,3,5,2,4,2,4,1,8,7,6,8,7,6,5,2,1,3,8,4,7,5,6,4,3,2,1,3,2,1,8,
{12}4,4,5,3,3,4,
{16}A3,E3,E2,A1,A6,E6,E5,A4,A8,E8,E7,A6,A8,B8,C,B4,A2,A3,A4,A5,A6,A7,A8,A1,A2/5,6,7,8,2,3,4,5,1,2,3,4,5,6,7,8,4,3,2,1,7,6,5,4,8,7,6,5,4,3,2,1,
{12}7,7,5,6,6,4,
{16}A6,E6,E5,A4,A7,B7,C,B3,A8,E1,E2,A2,A4,B4,C,B8,A6,A5,A4,A3,A2,A1,A8,A7,4,6,4,6,3,5,3,5,2,5,3,4,2,5,3,4,2,1,2,1,3,8,3,8,4,7,5,6,4,7,5,6,
{12}4,4,6,3,3,5,
{24}2x,E3,B3,B4,B5,E6,A6,E7,B7,B8,B1,E2,
{16}A2/A7,E8,E1,A1,A6,B6,B2,A2,E6,B5,B3,E3,E7,B7,B1,E2,
{8}6x-3[8:1],,2-5[8:1]/6,,1w5[8:1]/2,,1b,,
{32}1x<5[8:1],8x<4[8:1]b,7x<3[8:1],6x>2[8:1]b,1x,8x,7x,6x,1x-5[8:1],,,,,,,,,,,,A5f,,,,,,,,
{8}C,7xb-5-3-1-7[4:14]*-5-3-1-7-5-3-1-7[4:28]b`3xb<3[4:14]*<3<3[4:28]b,,,,,,,,,,,,,,,,,,,,,,,,,,,,,,,,,,,,,,,,,,,,,,,,,,,,,,,,,,,,,,,,5,4h[8:1],6,7h[4:1],,1,2>5-1[4:3],,,,,,,,,,8,7h[8:1],2,3h[4:1],,6,5<8-4[4:3]b,,,,,,B3`E3,,2,3,4h[8:2]/2h[8:1],,3,3h[8:1]/5h[8:2],,4,6-8-2-4[4:2]/4>6[4:2],,,,,,,,D5/A5/D6,,7h[8:2]/4h[8:1],,,6h[8:2]/3h[8:1],,,
{32}5x-3-1-7-5[4:3]b/4x-6-8-2-4[4:3],6x/3x,7x/2x,,,,,,
{8},,,,,,,,2>4[8:1],,7,7,6xV48[4:1],,6,1,2-6[8:1],7>2[8:1],2>5[8:1]b,7,B4/E4/B3,,
{16}1,2,3,4,5/1x-6[8:1],,,,
{8}4,4,3V15[4:1],,3,8,7-3[8:1],4<7[8:1],7>2[8:1]b,4,E8/B8/E1,,
{16}5,6,7,8,
{8}1-5[8:1]/5x,,2,2,3xV17[4:1],,3,6,5-1[8:1],2>5[8:1],5<8[8:1]b,2,E6/B5/E5,,
{16}5,6,7,8,
{8}1-5[8:1]/5x,,4,4,3xV17[4:1],,3,6,5V71[4:1]b,1,2,3,
{12}E3,E2,E1,4x,5x,6x,
{16}7x/2xb,,8,1,8,,7,,6,4,5,,4<8[4:1],3,2,1,8>4[4:1]/A4,A5,A6,A7,A8,A1,A2,A3,A4/2x,,1,8,1,,2,,3,5,4,,5V31[4:1],6,7,8,1V75[4:1]/A5,A4,A3,A2,A1,A8,A7,A6,
{4}A5/8x-4[8:1],8/3-8[8:1],7<4[8:1]/3,7/1-5[8:1]b,8/1,27,
{16}1,8,2,7,3,6,4,5,
{32}E4,B3,B2,E2,1x-6-2-5[8:15]b/E6,B6,B7,E8,8x-3-7-4[4:7],,,,,,,,
{4},,,,,,,,
{8},Cf,,,
{16}3,4,3,4,2>5[16:3],5,2,5,6,7,8,1,A6,A7,A8,A1,5,4,5,4,6<1[16:3],5,6,5,6>3[16:3],A7,A8,A1,A6,A5,A4,A3,
{12}8,7,6,5<3[4:1]/4,3,2,
{24}1,,,,,,A3,A4,A5,A6,A7,A8,
{16}A1/2,3,4,5,6>2[4:1],7,8,1,2<6[4:1],A5,A4,A3,A2,A1,A8,A7,
A6/3,2,1,8,5-2[4:1],6,7,8,1-6[4:1]/E5,B4,B3,E3,E1,B8,B7,E7,1,2,3,4,1-4[4:1],8,7,6,5-8[4:1]/E2,B2,B3,E4,E6,B6,B7,E8,
{12}1,2,3,4>6[4:1]/5,6,7,
{24}8,,,,,,A6,A5,A4,A3,A2,A1,
{16}A8/6,5,4,3,2V46[4:1],1,8,7,6V82[4:1]/A2,A3,A4,A5,A6,A7,A8,A1,A2/4,5,6,7,8>3[16:3]/4,5,6,7,8<5[16:3]/E1,E2,E3,E4,E8,E7,E6,E5,1,2,3,4,5<8[16:3]/1,2,3,4,5>2[16:3]/E6,E7,E8,E1,E5,E4,E3,E2,
{12}8,7,6,54,3,2,
{24}1/A5,E6,B6,B7,B8,E1,A1,E2,B2,B3,B4,E5,
{16}A5/1,2,3,4,1,8,7,6,
{32}1,2,3,4,5,6,7,8,
{4}1-5[8:1],7-2[8:1]/1,3-6[8:1]/7,8-5[8:1]/3,2-8[8:1]/8-3[8:1],2/8-4[8:1],A8f/4-7[8:1],A4f/7-3[8:1]b,A7f,
{12}1,2,3,8,7,6,2,3,4,7,6,5,
{32}1x,2x,3x,4x,5x,6x,7x,8x,1x,8x/2x,3x/7x,4x/6x,5xw1[8:1]b,,,,,,,,A5f,,,,,,,,1x,,,,
{4}7xbv1-6[4:12]`3xbv1-4[4:12]b,,,,,,,,,,,,,,,
{8},,3h,,,6h,,,2h,,,7h,,,1h/8h,,,,B7,,,B2,,,E1,,,7-3[8:1]/2-6[8:1],,72,
