&title=Der Schneid
&artist=Ωμεγα
&first=0.061
&des=Code-Ω=QingFeng233
&lv_5=14+
&des_5=Code-Ω=QingFeng233
&inote_5=
(222){4},,,,,,,,{1}7>8>1>2>3<4<5<6[4:7],
B2/B3,
2<1<8<7<6>5>4>3b[4:7],
B7/B6,
8<7<6>5>4>3>2<1[2:3],
E1/B8/B1,
4>3>2<1<8<7<6>5b[4:5],
{2}B5/E5/B4,1x-5[16:1],
{4}3b/7bh[4:1],{12}5,6,5,{6}6,{12}5,4,3,2,
{4}1>4[8:1],1<6[8:1],5-1[8:1],4,
3h[4:1],{12}1,,1,8,7,6,5/1,,,{6}7-4[8:1],
{12}8,7,{96},,,,,,,,,,,,,,,,{32}A8,D8,A7,D7,A6,D6,A5,D5,{4}A4,
{8}2b-5[8:1]/1b-4[8:1],1b/2b,,,8b-5[8:1]/7b-4[8:1],8b/7b,,,1b-5b[8:1]/2b-6[8:1],
1b/2b,,,3b/4b,3bv8b[8:1]/4bv7[8:1],,3b/4b,
,1,2,3,7,7,4,4,
{4}7<4[8:1],{8}1,2<7[8:1],,4,{4}5b,
{8}5h[16:1]/8-3[8:1],5h[16:1],5h[16:1],5h[16:1],5h[16:1]/4-1[8:1],5h[16:1],5h[16:1],5h[16:1],
6h[16:1]/8-4[8:1],6h[16:1],6h[16:1],6h[16:1],7-3[8:1],7,{4}1x,
{8}1-5b[8:1],1,{4}8,7-2b[8:1],{8}4,5-1b[8:1],
,8,7,6,{16}3,4,{8}3,5,5,
1h[16:1]/5-8[8:1],1h[16:1],1h[16:1],1h[16:1],1h[16:1]/7-4[8:1],1h[16:1],1h[16:1],1h[16:1],
5/2h[16:1],2h[16:1],2h[16:1],{16}3x,3x,3x-7[8:1],3x,3x,3x,{4}3x,
{8}5,5<8b[8:1],,2,{4}2>5b[8:1],{8}7,7>2b[8:1],
,5,{4}5,{8}4/8,3/7,2/6,5b/1b-5b[8:1],
,,{4}7,8-3[8:1],{8}6,6,
,4-2[8:1],5/3,4,,6/1,{16}7,8,{8}7,
,1,8/2,3,4-2[8:1],5-1[8:1],4,5,
{16},,3,4,{8}3,5/2,1,1,8,7b/E3f,
,1/6,{4}1/6h[2:1],{8}2,3,4,3b/E7f/B7/A7,
,8,8,8b/E3f/D3/B3/A3/A2,{16},,6x,5x,4x,3x,2x,1x,
{8}8x/4,8x/4-2[8:1],,6/4-7[8:1],,4,,8/1-5[8:1],
,1w5b[8:1],,1,{16},,,,3,2,{8}5b/1bq5b[8:1],
,6,{4}7-3[8:1]*-4[8:1],7,{8}5/2,5/2h[4:1],
,7,{4}8p4[8:1]*v3[8:1],8,{16}6,5,{8}6h[4:1],
,3,{4}2-4[8:1]*-5[8:1],2,{8}1/6,1/6h[4:1],
{16},,8,7,{4}6/1,{8}2,3,4,5b/1b,
,2,7-5[8:1],3,7-1[8:1],4,7,2,
3-8[8:1],4-7[8:1],3,4,1x-4[8:1]*-6[8:1],8/2,{4}1,
{8}5/2b,5,6,6,{16}1,2,3,4,5,6,7,8,
{2}Ch[2:1],E1f/D1/A8/A1,
7b-5>4-8-2[4:5],{8}3,3,3,3,
{4}3x,3x,{2}E3,
1>2-4-8-6b[4:5],{8}5,5,5,5,
{4}5h[8:1],5h[8:1],{8}B5,{16},,,,6,7,
{2}8-2v7-5-3[4:5],{8}3,3,3,3,
2,2,2,2,{2}B1,
{8}3-8>2b[2:1],,,5,6,6,5,{16}3,4,
{8}2,2,4,4,6,6,8,8,
{2}1bV35-2-8-4b[2:3],{8}6,6,6,6h[16:1],
7,7,7,7,{2}E7,
1-6-8-5v2-7[2:3],{8}3,3,3,3,
4,4,4,4,E4,{16},,,,2,1,
{2}8-2v3-6-4-7b[2:3],{8}7,7,7,7,
8,8,8,8,{2}E8,
{8}7/4,6,4,5,2/5,3,5,4,
7b,7b>2b[8:1],,3b-8b[8:1],,5b-1b[16:1],{4}5b,
{1}Cf/4xpp6pp8pp2pp4qq2qq8qq6qq4b[4:27],
,,,,,{4},,,8,
{1}8w4[2:1],
{4}2b/6b,3/5,{12}3,4,3,2/5,,,{4}7-3[8:1],
7/4-1[8:1],4/8-5[8:1],8,
2-5[8:1],2/6,{12}6,5,6,7/4,,,{6}3v8[8:1],
{12}3,7-4[8:1],,7,{6}1-5[8:1],{12}1,8,,,4,
4,5,3,3,4,2,1,2,B2,,,5,
5,4,6,6,5,7,8,7,B7,{24},,,,7,
6,5,1h[8:1],,,6,5,4,1h[8:1],,,5,4,3,1,,,2h,3,4,5h,6,7,
{1}Cf/8bz4b[2:1],
{4}2v5[8:1]/6b-1b[8:1],2/6,{8}3-1b[8:1],5-3>1-7[8:3],3,5,
,5,4,3h[4:1],,8,{4}7/1,
7-4[8:1]/3v8b[8:1],7/3,{8}6<8b[8:1],4-6-8>2[8:3],6,4,
,4,5,6h[4:1],,1,2/8,3,
{4}1-6b[8:1]/4v1[8:1],4/1,{8}5-3b[8:1],8-6>4-2[8:3],5,8,
,1,8,7h[4:1],{16},,8,1,2,3,{8}4,
7x,{16}3,4,3,4,{8}2x,{16}6,5,6,5,{8}7x,{16}3,4,
2,4,{8}1x,{16}6,5,7,5,{8}8x,8,1b/7b,2bv7b[8:1]/6b-3[8:1],
,2/6,,,8-3[8:1],4<7-1>3b[8:3],8,4b,
,4,5,6h[4:1],{16},,5,4,3,2,{8}1,
{4}7b-2b[8:1]/3v6[8:1],3/7,{8}1-6[8:1],5>2-8<6b[8:3],1,5b,
,5,4,3h[4:1],{16},,7,8,1,2,3,4,
{4}5v2b[8:1]/1b-6[8:1],1/5,{8}3-8[8:1],6>3-1-7b[8:3],3,6b,
,5,4,3h[4:1],{16},,5,6,7/8,1,2,3,
{8}4x/7x,{16}6,5,{8}6,7x/3x,{16}6,4,{8}5,5x/2x,{16}3,4,
{8}3,2x/6x,{16}3,5,{8}4,{16}7-3[8:1],8,6,1,{4}7b,
{16}E2f/B2,E6f/B6,E4f/B4,E8f/B8,{4}Cf,8x<5b[4:1],2,
3V17b[4:1],4,5p1b[6:1],6,
7V53b[4:1],3p6b[4:1],6pp8b[4:1],3,
2-6b[8:1],2/8,7-3b[8:1],{8}7/1,1,
{4}2pp6b[2:1],7,8,1,
5qq4q1b[8:5],8,7,6,
7>1-5<6-4b[8:5],2,3,2,
1q1b[4:1],7,{12}8bx,8bx,8bx,8bx-4b[8:1],8bx,8bx,
{1}8bx,
{12}2,2,2,4,4,4,6,6,6,8,8,8,
{4}1>4[8:1],{12}6,7,8,1/5,6,7,4,5,6,
2,4,3,5,4,6,5-1[8:1],7,3,5,,,{4}3bh[4:1],
{12}7,6,5,3,4,5,8,7,6,
3,4,2,6,5,7,1,3,2,8,6,7,
4,4,5,3,4,3,6,6,5,7,6,7,
2,2,4,8,8,6,1,1,3,{96}D1,,,A1,,,{32}D2,A2,D3,A3,D4,A4,
{2}8b>3b[8:1]*q4[8:1],{12}7,7,5,5,4,4,
2,3,4,5,6,7,{2}8/5v8b[8:1]*-2[8:1],
1bp5[8:1]*<6b[8:1],{12}2,2,4,4,5,5,
7,6,5,4,3,2,{2}1/4v2b[8:1]*-6<7[8:1],
{3}8b/1bh[4:1],{12}7,7,1,6,1,5,1,4,
1,5,1,3,1,6,{24}1,2,3,4,,,{12}6,5,6,
{24}2,3,4,8h[8:1],,,3,4,5,8h[8:1],,,4,5,6,1,{96},,,,,,,,{32}1h,8,7,6,5,4,3,2,
{1}Cf/1bs5b[2:1]*-5[2:1],
{8}4xv1>4[4:5],,,,,,,B7/B6,
,,,,,,,,8xv6<1b[4:5],
,,,,,,B3/B4,
,,,,,,,,2x-6-4>1[4:5],
,,,,,,E8/B7/B8,
{16},,,,,,,,,,,,8,7,6,5,
{8}2x/4x,{16}3,4,3,2,{8}3x,{16}6,5,6,7,{8}6x,{16}2,1,
2,3,{8}2x,{16}7,8,7,6,{8}7x,{16}4,5,{8}3b/6b,7b/2b,
1-5[8:1],{16}8,8,{8}1,{16}7,7,{8}3-7[8:1],6<1-3-5b[8:3],3b,6b,
,8x,1,6/2h[4:1],{16},,7x,8,6x,5,7,4,
{8}8b-4[8:1],{16}1,1,{8}8,{16}2,2,{8}6-2[8:1],3>8-6-4b[8:3],6b,3b,
,1x,8,3/7h[4:1],{16},,3,2,1,8,5,6,
{8}7/8-4[8:1],{16}6,6,{8}8,{16}7,7,{8}5-2[8:1],8-4-2-7<6b[2:1],5b,8b,
,5,4,3>8[8:1],{16},,8,7,6,5,{8}4,
2x/5x,{16}3,4,{8}3,2x/5x,{16}6,5,{8}6,7x/4x,{16}7,8,
{8}7,6x/1x,{16}2,1,{8}2,3x/8x,{16}8,1,{4}7x/2xh[4:1],
{16}8x,3,4,3,{8}4h[8:1],{16}1x,6,5,6,{8}5h[8:1],{16}6x,2,1,2,
{8}1h[8:1],{16}3x,7,8,7,{8}8h[8:1],{12}7b,7b,7b,3b,3b,3b,
{6}8-4[12:1],8x/1,{12}2,2,4,4,5,5,7,7,
{6}4-8[8:1],4x/6,{12}7,7,2,2,2,3-6b[8:1]/7-2b[8:1],7/3,3/7q1[24:35],
{16}7b/3bq5<6<7>8>1>2>3<4b[4:13],Cf,{1},,,{4},,,{8},{1}B8h[4:1]/Ch[4:1]/B6h[4:1]/B4h[4:1]/B2h[4:1],
E
