&title=水星
&artist=ラブリーサマーちゃん
&first=-1.35
&des=Karin
&lv_5=12+
&inote_5=(98)
{16},,,,,,,,,,,,,,,,
6h[4:2],,,,E3,,B4,,5h[4:2],,,,E1,,B7,,6h[4:2],,,,E5,,B3,,2-5[8:2],,,,E7,,B8,,
1h[4:2],,,,E5,,B3,,2h[4:2],,,,E1,,B7,,6h[4:2],,,,,,,,5-1[4:1],,,,3/5,,,,
2h[4:2],,,,E7,,B5,,4h[4:2],,,,E1,,B2,,3h[4:2],,,,E7,,B5,,4-7[4:1],,,,E1,,B2,,
3h[4:2],,,,E7,,B5,,4h[4:2],,,,E5,,B3,,2h[4:2],,,,,,,,6,,,,
{24},,3,4,,,2-5[8:1]/5,,,8,,8,2,,,,,,7,,7,5,,,4-6[8:1]/6,,,2-4[8:1],,,4,,,2,,,7,,7h[24:4],,,,3,,3,4,,,2/5,,6,5,,,
7-4[8:1]/4,,,3,,,1/7,,,,,,2-8[8:1]*-4[8:1],,2,4,,,2,,,,,,7,,7,5,,5,6-1[8:1],,6,4,,,2-5[8:1],,,2,,,8,,,,,,
8p3[8:1]/7<4[8:1],,,8/7,,,,,,,,,2-5[8:1]/1-5[8:1],,,2/1,,,,,,,,,
3/7,,,6,,6,5-3[8:1],,,7h[4:1],,,5-1[8:1],,,,,,5/7,,,,,,
2-5[8:1]/8-4[8:1],,,,,,,,,,,,6,,6,5,,,4/7,,,1,,,3/5,,,2,,2,4-7[8:1],,,3h[4:1],,,4-1[8:1],,,,,,3/4,,,,,,
2-5-3[8:3]/8h[8:1],,,,,,8h[8:1],,,,,,8h[8:1],,,,,,7,,7,5,,,
4h[8:1]/6h[8:1],,,,,,3,,3,5,,5,1,,,2/6,,,7,,7,8,,,
5h[8:1]/7h[8:1],,,,,,8-6[8:1],,,2-6[8:1],,,8-4[8:1],,,2,,,8,,,3,,,
2/5,,3,4,,,3/7,,5,4,,,7/8,,,7-5[8:1]/8-4[8:1],,,5-1[8:1]/4-2[8:1],,,,,,
,,,,,,78,,,6,,6,5,,5,7,,,4/6,,,1/7,,,2,,2,4,,,3/5,,,6,,6h[8:1],,,3,4,,5,4,,,2/6,,,
4/7,,6,5,,,2/6,,4,5,,,3/8,,,2,,2h[24:4],,,,7,,,
6h[4:1]/4,,,
{16}A3,B2,C,,1/7,,
{24}2-5[8:1]/8,,,,,,Ch[64:1],,,,,,
8<4[4:1],,,,,,4>7[4:1],,,,,,7<2[4:1],,,,,,2<4[4:1],,,,,,4pp3[4:1],,,,,,2,,,,,,1-6[8:1]*-5[8:1],,,,,,1,,,,,,
4-1[8:1],,,,,,4/7-4[8:1],,,,,,2qq3[4:1]/7,,,3,,,2/4-7[8:1],,,5,,,4,,,2,,,1-5[8:1]/8>3[8:1],,,,,,1/8<5[8:1],,,,,,4h[4:1]/8,,,,,,
6<1[8:1],,,3,,,4-2[8:1],,,5,,,1-5[8:1],,,8,,,7-4[8:1],,,6,,,3,,,2,,,6<2v4[4:1],,,3,,,3h[4:1],,,,,,,,,,,,
2h[4:3]/6pp4[4:2],,,,,,,,,,,,,,,,,,,,,,,,5h[4:3]/3<3[4:2],,,,,,,,,,,,,,,,,,,,,,,,
1V37[4:1],,,,,,7V15[4:1],,,,,,5V73[4:1],,,,,,3V51[4:1],,,,,,1qq2[4:1],,,,,,4,,,,,,5-2[8:1]*-1[8:1],,,,,,5,,,,,,
8-5[8:1],,,,,,3-8[8:1]/8,,,,,,5pp4[4:1]/3,,,4,,,5/8-3[8:1],,,1,,,8,,,5,,,6-3[8:1]/8-4[8:1],,,,,,6/8>3[8:1],,,,,,6h[4:1]/8,,,,,,
4-1[8:1],,,6,,,7-5[8:1],,,8,,,4-8[8:1],,,3,,,2-5[8:1],,,1,,,6,,,7,,,6<2v4[4:1],,,3,,,3h[4:1],,,,,,,,,,,,
7h[4:3]/3pp8[4:2],,,,,,,,,,,,,,,,,,,,,,,,1>7[4:2]/6>8[4:2],,,,,,,,,,,,,,,,,,,,,,,,
{16}7h[4:2],,,,E3,,B1,,8h[4:2],,,,E5,,B6,,7h[4:2],,,,E1,,B2,,3-8[8:2],,,,E7,,B5,,
4h[4:2],,,,E1,,B2,,3h[4:2],,,,E5,,B6,,7h[4:2],,,,,,,,8-4[4:1],,,,2/8,,,,
3h[4:2],,,,E7,,B8,,1h[4:2],,,,E5,,B3,,2h[4:2],,,,E7,,B8,,1-6[4:1],,,,E5,,B3,,
2h[4:2],,,,E7,,B8,,1h[4:2],,,,E1,,B2,,3h[4:2],,,,,,,,7,,,,5<4[4:4]/4,,,,5b/4b,,,,,,,,,,,,,,,,
E
&inote_6=
