&title=双龍飛閃-Dual Dragoon-
&artist=Daisuke Ohnuma
&first=0.111
&des=Aterla
&lv_5=14
&des_5=Aterla
&inote_5=
(212){4},,,,{1}7-5v4-2[8:3],
{4},A7/B7/C/A1/B1/B4/A4,{8},,,,,,,Cfh[8:13],
{1},,,,,{4},,{16}7h,
,,7h,,,{8}7h,{16}6,5,{8}6,{16}3,4,3,4,
2h[16:1],,,2h[16:1],,,{8}2h[16:1],{16}7,6,,1,2,3,5,6,
7/2h,,,2h,,,{8}2h,{16}3,4,{8}3,{16}6,5,6,5,
7h[16:1],,,7h[16:1],,,{8}7h[16:1],{16}2,3,{32},,8,7,6,5,4,3,2,1,{16}8,
7xh,,,7h,,,{8}7h,{16}6,5,{8}6,{16}3,4,3,4,
2h[16:1],,,2h[16:1],,,{8}2h[16:1],{16}7,6,,1,2,3,5/4,6,
7/2h,,,2h,,,{8}2h,{16}3,4,{8}3,{16}6,5,6,5,
7h[16:1],,,7h[16:1],,,{8}7h[16:1],{16}2,3,{32},,8,7,6,5,4,3,2,1,{16}8,
{12}7x,5x,7x,4x,6x,4x,5x,3x,5x,2x,4x,2x,
8,7,6,8/5,1,2,8/3,7,6,{48}8/5,E1,B1,B2,{6}E3,
{8}6,{16}5,5,,,7,7,1,8,1,8,{8}1,7,
{16}1/2,,,5/4,,,{8}7/8,4/5,{16}6,5,{8}6,{16}3,4,
3b,,,3b,,,{8}3b,{16}5b,,,5b,,,{8}5b,
{16}1b,,,1b,,,{8}1bs5b[8:1],8b,{16}B1,B5,,,,,{8}3,
{16}4,4,,,2,2,8,1,8,1,{8}8,2,
{16}8/7,,,4/5,,,{8}2/1,5/4,{16}3,4,{8}3,{16}6,5,
6b,,,6b,,,{8}6b,{16}4b,,,4b,,,{8}4b,
{12}8b,7,6,1b,2,3,8b-4b[8:1],7,6,{48}B8,,,B4,,,,,,,,,{8}2,
{16}1,1,,,3,3,5,4,5,4,{8}5,3,
{16}5/6,,,1/8,,,{8}3/4,8/1,{16}2,1,{8}2,{16}7,8,
7b,,,7b,,,{8}7b,{16}1b,,,1b,,,{8}1b,
{16}5b,,,5b,,,{8}5bs1b[8:1],4b,{16}B5,B1,,,,,{8}7,
{16}8,8,,,6,6,4,5,4,5,{8}4,6,
{16}4/3,,,8/1,,,{8}6/5,1/8,{16}7,8,{8}7,{16}2,1,
2b,,,2b,,,{8}2b,{16}8b,,,8b,,,{8}8b,
{12}4b,3,2,5b,6,7,4b-8b[8:1],3,2,{48}B4,,,B8,,,,,,,,,{4}7,
7,{8}7/6,7/6,7/6,7/6,
8/5,8/5,{16},,,,6b,4b,6b,4b,{4}6b,
{8}2,2,{4}2,{8}1/3,3h[4:1]/1h[4:1],{16},,,,D1,
A8,D8,A7,{8}D7,C/B6/B2,{16}D5,A4,D4,A3,{8}D3,B2/C/B6,
{4}8xV62[8:3],{8}2x,2x-4-8[8:3],,1,1,1,
{16}A1,E1,E8,A7,D2,B1,B7,D7,A2,B2,C,B6,{4}A6f,
{16}4,,,4,,,{8}4,5/3,5/3,6/4,6/4,
{16}E2,E3,E4,E5,E6,E7,E8,E1,{32}A1,A8,A7,A6,A5,A4,A3,A2,{4}A1f,
6x-2[8:1],3-8[8:1],7,{8}1-3[8:1]*-4[8:1],1,
{4}1-7[8:1]*-6[8:1],1-5[8:1],{2}5w1[8:1],
{4}6-1[8:1],8-4[8:1],5,{8}6>2[4:1],6,
{4}2<6[4:1],6>4v7[16:5]*>4v1[16:5],,Cf,
3-7[8:1],3/6-1[8:1],2/6,{8}8-5[8:1]*-3[8:1],8,
{4}8,{8}4-1[8:1]*-2[8:1],4,{4}4-6[8:1]*-7[8:1],4,
{8}8,8,1/7,1/7,2/6,2/6,3/5,3/5,
{16}4,5,4,5,4,5,4,5,{32}4,3,2,1,8,7,6,5,4,3,2,1,8,7,6,5,
{1}4b/Cfh[1:10],
{4},,,,B8/B7,
7,{8}6,6,{4}6,
{2}5h[4:1],5h[4:1],
{4}B6/B5,5,{8}4,4,{4}4,
{2}3h[4:1],3h[4:1],
{4}B3/B4,3,{8}2,2,{4}2,
{2}1h[4:1],1h[4:1],
{4}B2/B1,1,{8}8,8,{4}8,
{2}7h[4:1],7h[4:1],
{4},5x/4x,{8}3/6,6/3,{4}6/3,
{16}8,1,8,1,8,1,8,1,8,1,8,1,{4}8,
{8}6,6h[8:15],,,{4}E2,E4,
C,E1,E5,E7,
{8}4,4h[8:15],,,{4}E8,E6,
C,E1,E5,E7,
{8}7,7h[8:7],,,{4}E6/B5,E2/B1,
{8}2,2h[8:7],,,{4}E4/B4,B8/E8,
{8}8,8h[8:7],B5,C,B1,E3,{4}E4,
{8}1,1h[8:7],B4,C,B8,E7,{4}E6,
{8}7,7h[8:3],{4}C,{8}2,2h[8:3],{4}C,
{8}6,6h[8:3],{4}B5,{8}3,3h[8:3],{4}B4,
{8}5,5h[8:3],{4}B2,{8}4,4h[8:3],{4}B7,
{8}7,7h[8:3],{4}C,{8}2,2h[8:3],{4}C,
{8}8,8,7,7,6,6,5,5,
4,4,3,3,2,2,1,1,
{16}8,7,6,5,4,3,2,1,8,7,6,5,4,3,2,1,
{32}8/4,5,6,7,8,1,2,3,4,5,6,7,8,1,2,3,4,5,6,7,8,1,2,3,4,5,6,7,8,1,2,3,
{1}Cf/4b-8b[2.2642##0.1415],
{16},,,,,,,,7,6,5,4,8,1,2,3,
{4}4x-2[8:1]*-6[8:1],4,{16}7,8,{8}7,{16}2,1,{8}2,
{4}7h[8:1],{8}5,{16}6,4,{8}3,{16}2,4,{8}6,{16}7,5,
{4}8-5-8[16:3],{8}4,4-1-4[16:3],,8,{4}8,
{32}8/1h[8:1],7,{16}6,{32},,,,1/8h[8:1],2,{16}3,{32},,,,7/1h[8:1],6,{16}5,{32},,,,8h/2qq5[4:3],3,4,5,6,7,8,1,
{8}2h[4:3],,,,,,,1,
{4}1h[2:1],{8}B5,E7,,8,8z4[4:3],8,
8b,,,1bs5[8:1],,,,,5bh[4:3],
,,1bh[8:3],{32},,,,,,,,,6/2,7/3,4/8,,,,,{16}1x,
8,7,6,4x,3,2,1,8x,7,6,5,3x,2,1,8,
4x,5,6,7,1x,2,3,4,5x,6,7,8,2x,3,4,5,
6x,5x,7x,4x,6x,5,7,4,6x,5,7,4,6x,5,7,4,
6bx,7,8,1,4bx,3,2,1,8bx,7,6,5,1bx,2,3,4,
6,5,6,5,7,4,7,4,8,3,8,3,1,2,1,2,
8,7,6,5,2,3,4,5,7,6,5,4,1,2,3,4,
{24}7b,6,5,4,3,2,7b,6,5,4,3,2,7b,6,5,4,3,2,7b,6,5,4,3,2,
{32}8bx,7,6,5,4,3,2,1,8bx,7,6,5,4,3,2,1,8bx,7,6,5,4,3,2,1,{64}8bx,D8,A7,D7,A6,D6,A5,D5,A4,D4,A3,D3,A2,D2,A1,D1,
{12}4x/A8,4x,5x,4x,4x,6x,4x,4x,7x,7x,,,5,
5,4,5,5,3,5,5,2,{48}2,,,3,,,{8}4,
{12}6,5,6,3,4,3,7,5,6,2,4,3,
8,5,5,1,4,4,{24}4,3,2,1,8,7,6,5,4,3,2,1,
{8}8b,{16},,,,1b,1b,{4}1b,{8}6bp4b[4:5]`2bp8[4:5],Cf/B1/B5,
E
