&title=Mizutama-Tripster
&artist=こふ
&first=0.44
&des_5=Ragna
&lv_5=14
&des=Ragna
&wholebpm=145
&demo_seek=104.4
&demo_len=22.7
&inote_5=(145){16}
73,,6,4,5,,34,,25,,{24}3,4,3,{8}4,54,
E7,E2,E8,E4,E6,E3,E1f,,{12}
3,4,3,5,4,5,3,4,3,25,,,
6,5,6,4,5,4,6,5,6,74,,,
3,4,3,6,5,6,2,4,2,7,5,7,
2,4,4,3,5,5,4,6,6,5,7,7,{32}
6bxp4[2:1],5x,4x,3xh[32:41],{8},,,,,,,{32}
4,5,6h[32:38],,,,,,,,,,,,,,3,4,5h[32:6],,,,,,,,,,,,,,
5,4,3h[32:38],,,,,,,,,,,,,,6,5,4h[32:6],,,,,,,,,,,,,,
4,5,6h[32:22],,,,,,,,,,,,,,2,3,4h[32:30],,,,,,,,,,,,,,
7,6,5h[32:22],,,,,,,,,,,,,,,,,,,,,,,,,,,,,,
3,6,4h[32:22]/5h[32:14],,,,,,,,,,,,,,,,,,,,,,,,,,,,,,
3/6h[4:1],4,5,,,,,,,,,,,,,,6/3h[4:1],5,4,,,,,,,,,,,,,,
2/5h[4:1],3,4,,,,,,,,,,,,,,7/4h[4:1],6,5,,,,,,,,,,,,4,5,{1}
3>5[2:1]/6<4[2:1],{16}
3pp6[2:1]/6,,,,,,8x,8x,8xh[16:3],,,,,,,,
7^4q1[2:1]/4,,,,,,2x,,2xh[4:1],,,,,,,,
4qq1[2:1]/8,,,,,,6x^1[8:1],6x,6x,,,,,,,,
8^5q2[2:1]/2,,,,,,4x,,4xh[4:1],,,,,,,,
1qq6[2:1]/3,,,,,,4x,4x,4xh[16:3],,,,,,,,
7^2p5[2:1]/2,,,,,,4x,,4xh[4:1],,,,,,,,
3qq8[2:1]/6,,,,,,5x^8[8:1],5x,5x,,,,,,,,
1^6q3[2:1]/6,,,,,,5x,,5xh[4:1],,,,,,,,
4,5,3,,4,5h[8:1],3xh[8:1],,,,6,6x,5,,7h[4:1],,
,,4,4,5h[4:1],,3xh[4:1],,,,7h[4:1],,,,1h[8:5],,
8,,7,,6,,5xh[16:1],,,,26,,37,,4b>1pp4[8:5]b/8b^5pp4[8:5],,{1}
,{16}
3,5,4,6,,3,4,2,,2,6,1,,1,4,2,
5,3,4,2,,2,6,1,7h[4:1],,{24}2,3,4,{16}5,,6,,
3h[4:1]/7,,,,E5,,,{32}1,8,{16}2<5[8:3]/7>4[8:3],,,,,,,,{1}
,{16}
6,3,5,4,,6,5,7,,7,3,8,,8,5,7,
4,6,5,7,,7,3,8,2h[4:1],,{24}7,6,5,{16}4,,3,,
6h[4:1]/2,,,,E5,,,,8h[4:1],,{24}1,2,3,{16}4,,7,,
28,28,,37,,45,,26,26,,17,,{24}17,26,35,{16}4,,
2h[4:1]/6h[4:1],,,,,,1-3[8:1],,7x-5[8:1],,1-7[8:1],,7-1-3[4:1],,1-3[8:1],,
4-8[8:1],,4,,4,,2-4[8:1],2,7-5[8:1],,2^7[8:1],,7,,2,,
Cfh[8:8],,,,,,,,,,,,,,,,{1}
B2/B3/B6/B7,{12}
4,5,3,6,5,7,4,5,3,26,,,
5,4,6,3,4,2,5,4,6,73,,,
4,5,3,5,4,6,3,4,2,6,5,7,
2-6[8:1],2,2,2,,,7-3[8:1],7,7,7,,,
2,4,3,6,4,5,2,4,3,45,,,
7,5,6,3,5,4,7,5,6,45,,,
2,4,3,7,5,6,1,4,3,8,5,6,
3-8[8:1],3,3,3,,,6-1[8:1],6,6,6,,,{16}
3x^6[4:1],,,,6>8[8:3],,7xh[16:1],,8x,,8x,,7,,7p4[8:3],,
,,5h[4:1],,,,,,3x,,2,,15,,,,{24}
2,5,3,{16}4,,2^5[8:1],,1,,8x,,7^2[8:1],,6,,5V74[4:1],,
,,3h[4:1],,,,,,2x-6[8:1],,1,,8,,7,7,
5h[8:1],,6,4,5,3,4,2,5x,3,6,4x,7,5,8,1,
7,2,6,3,5,4,6,5,7x,4,8,3,1,2,8,3,
7h[16:3],,,5,5h[16:3],,,4,4xh[8:3],,3,,2,,1,1,
5h[8:1],,4,4,7h[8:1],,1,1,5xh[8:1],,3,3,8h[8:1],,1,1,{1}
4-8[4:11],
,
,
,
5-1[4:10],
,{4}
4xh[4:1],,5xh[4:1],{16},,,A7/B7/A3/B3,
,6,5,,74,,18,,A2/B2/A6/B6,,3,4,,25,,8b/1b,
,7,2,5,4h[8:1],,7,5,8,1,4,2,5,4,7,{32}B3,B4,{16}
E5,8,{32}E2,B2,{16}B3,7,5,6,1h[8:1],,,4,3,{24}E8,B7,B6,{16}E6,1,
4h[8:1],,3,8,1,7h[8:1],,5h[8:1],,4h[8:1],,3,8,1,6,5,
8p3[8:1]b*q5[8:1],,,,C,,,,1q6[8:1]b*p4[8:1],,,,C,,,,
A7/E8/A1/E1/D8/D1/A8f,,,2xh[16:3]/6xh[16:3],,,,,A2/E2/A8/E1/D2/D1/A1f,,,7xh[16:3]/4xh[16:3],,,,,
A7/E8/A1/E1/D8/D1/A8f,,,5xh[16:3]/3xh[16:3],,,,,2x/6x,,{24}4,5,3,{16}4,,26,,
2xv4[8:1]/6xv8[8:1],,,,26,,,,73,,{24}5,4,6,{16}5,,73,,
7h[4:3]/3h[4:3],,,,,,,,,,,,,,,,
B7,,4,5,E2,,8^6[8:1],,2bx^4[8:1],,8^2[8:1],,2<6[4:1],,8^6[8:1],,
5-1[8:1],,5,,5,,7^5[8:1],7,2^4[8:1],,7-3[8:1],,2,,7,,
E2,,6,5,B7,,3,4,B2,,6,5,E8,,4,5,
Cfh[4:3],,,,,,,,,,,,B2/B3/B7/B6,,,,
5h[8:1]/4,,B2/E2,,4,5,2,,45,,2,5,4,5,B2/E2,,
5/4h[8:1],,B7/E8,,5,4,7,,45,,7,4,5,4,B7/E8,,
3h[8:1]/4,,B8/E8,,{24}3,4,3,{16}8,,34,,5,1,4,3,B8/E8,,
6h[8:1]/5,,B1/E2,,{24}6,5,6,{16}1,,6h[12:1]/5h[24:1],,4,8,5,6,B1/E2,,{2}
3xh[4:3]/7xh[4:1],4h[4:3],5h[4:3],7h[4:3],
3h[4:3],5h[2:1],{12}4,4,6,5,5,7,
6,6,8,7,7,1,{4}8b,,
,,8h[1:2]/1p1<2[4:7],,
,,,,
,,,,
E
