&title=Midnight Air
&artist=Cat-X
&first=0.045
&des=Cat-X
&lv_5=1
&des_5=Cat-X
&inote_5=
(155){4}4bx>5b[4:7],,,,,,,,4bx,
{8}8,1,{4}8/1,7/2,
7/2>4[2:1],{8},,,,7,7,
{4}8/1,7/2,{2}3b/6b<1b[2:1],
{8},,2,2,{4}7/3,2/6,
4/5<8[4:3],3,2,2,
1>4[4:3],6,7,7,
{1}8b<5[2:3],
{2}2bx,{4}3bx,4bx,
{2}4,{4}6/2,5,
,5,{2}7/3,
2,{8}8/1,1,,4/6h[8:5],
{16}8,,,1,,,{8}2,{4}3,7/1,
4>1[4:3],5,6,7,
8b<5[4:3],1,2,3,
{2}4,{8}1/8,8,,6/2,
{16}2,,,8/7,,,{8}2/1xw5[0.1936##0.5806],{2}1x,
{1}Cfh[1:1],
{4}6h[4:1],3h[4:1],{8},1/8,{4}Cf,
6/3h[4:1],5h[4:1],4h[8:1],{8}6/3,2>5[32:15],
{4}7,8,{8}1,6,5/4,6/3,
{4}4/5h[4:1],4h[4:1],6h[8:1],{8}2,6/1>4[8:3],
{4}7,8,{8}7,6h[8:1],{4}3h[8:1],
2/7qq3[8:3],2,2h[8:1],{8}2,5pp1[8:3],
{4}5,3,{8}3,4,3/8,7h[8:1]/3V51[0.5806##0.5806],
,,{4}E7/B7,{8}E7/B7,6,7/2,1h[8:1]/7V15[0.5806##0.7742],
,,{4}E3,E3/B3,3,
4b,5/4,3,3/2,
2,2/1,1,{8}1/8,1/8,
{4}8,8/7,7,7/6,
6,6/5,5,{8}5/4,5/4,
6,6,3,3,7,7,2,2,
8,8,1,1,7,7,2,2,
{16}6,3,6,3,7,2,7,2,8,1,8,1,8,1,8,1,
{4}8-4[4:1],{8}2,2,{4}B2/B3,B7/B6,
{8}8/1-5[32:7],2,1/7-3[32:7],8,7/2-6[32:7],1,2/8-4[32:7],7,
8/1-5[32:7],2,1/8-4[32:7],7,8,{32}2-6[0.3387##0.2419],,,7-3[0.4355##0.1935],,,,2,,,,,{8}7,
2,8/1,7,8/1,3,1/8,6,
7/2,4,7/2,5,8/1,{16}7/2,7/2,{8}6/3,8bx/1bx,
7-5[8:1],1-3[8:1],7,1,8-6[8:1],2-4[8:1],8,2,
5,3/5<7[8:1],6,5/3>1[8:1],2,3,6,7/8,
8/1,6,8/1,3,7/2,6,3,7/2,
{2}8bx<5b[0.7742##0.3871],{4}8/1b>4b[4:1],1,
6h[4:3],3,3,{8}3,7bx/2bx,
6/3,6/3,6/3,2,6/3,7,7/2,1,
7/2,8,7/2,4,7/2,5,6/3,1,
6/3,8,7/2,3,7/2,6,7/2,5bx/4bx,
{4}3h[8:1]/6h[8:1],6h[8:1]/3h[8:1],7h[8:1]/3h[8:1],{8}6/3,6/3,
{4}6h[8:1]/3h[8:1],6h[8:1]/3h[8:1],{16}6h[8:1]/2h[8:1],,,6x/2x,{8}8bx/1bx,7h[8:1]/2h[8:1],
,7h[8:1]/2h[8:1],,6/3,6/3,{16}7/2,7/2,{8}6bx/3bx,5bx/4bx,
{4}6bx<8b[4:1],8b>2b[4:1],2b>4b[4:1],4bw8b[32:5],
{1}Cf/B8/B6/B2/B4,
,4h[2:1]/5h[4:1],
{8},,6,5,{4}4,3,
{1}2pp5[8:5]/1qq6[8:5],
7qq4[8:5]/8pp3[8:5],
8<1b[4:7],
{2}8bx,{8}7,7,6,6,
{4}5bx,{8}5,4,{4}7/3,4,
{8},4/5,{4}5/4,{2}6/2,
{8}8,,,1,7/3,6/2,,7/2,
{16}5/4,,,6/3,,,{8}7/2,{4}7/3,5b,
8<5[4:3],1,2,3,
4>1[4:3],5,6,7,
{2}8b,{8}7/2,5/4,,5/4,
{16}6/3,,,7/2,,,{8}7/2,{4}7bh[4:1]/2bh[8:1],Cf,
B4/5-8[4:3],E3,B1,{8}1,1-4[8:7],
,,{4}B8,{8}E7,B5,B6,B7,
{4}8V26[4:3],5,5,{8}4,4V62[8:7],
,,{4}1,{8}1,8,8,7,
{4}7V58[4:3],1,{8}2,3,4,3,
{4}2V41[4:3],8,{8}7,6,7,8,
{4}8qq5[4:3],B2/B3,{8}B2/B3,4,3,2,
{4}1pp4[4:3],B7/B6,B7/B6,B7/B6,
5bx,{8}5/4,6/3,{4}5/4,5/4,
{8}6/3,7/2,{4}6/3,6/3,{8}7/2,7/2,
{4}8/1,{8}7/2,7/2,{4}6/3,6/3,
{8}6/3,7/2,{4}8/1,8/1,{8}8/1,{16}1x,8x,
{8}1,1,2,2,3,3,4,4,
8,8,7,7,6,6,5,5,
{16}4,5,4,5,3,6,3,6,2,7,2,7,1,8,1,8,
{8}1,1,1,{16}1,1,{4}8h[8:1]/1h[8:1],Cf/B8/B7/B1/B6/B2/B4/B5/B3/E7/E3/E1/E5,
5/4h[1:1],5,6,{8}7,8b<1b[2:1],
,,,,,8bx,8bx,8b/1b,
8/1-5[32:7],2,1/7-3[32:7],6,7/2-6[32:7],1,2/8-4[32:7],1,
8/1-5[32:7],2,1/8-4[32:7],7,8/1,{16}1,1,{8}2bx,8bx/1bx,
8/1,2,8/1,7,8/1,3,8/1,6,
8/1,4,8/1,5,5/4,5/4,6/3,7/2,
8b/1b,3/6,8/1,3,8/1,6/3,6/3,3/6h[8:5],
{32},,,,,E2,,,{8}E3,E4,{4}4bx,6b/3b,
{8}5/4,8/6,5/4,6/1,5/4,1/3,5/4,8/3,
5/4,7/2,6/3,8/1,7/3,8/4,6/2,5/1,
7/8,7/8,1/2,1/2,6/3,5/4,5/4,7h[4:1]/2h[4:1],
,,7/2,5/4,7/2,{16}7x/2x,7x/2x,{8}5/4,8bx/1bx,
6/3,7/8,6/3,1/2,7/8,6/5,4/3,1/2,
7/8,5/4,1/2,5/4,8/1,7/2,6/3,6/3,
{16}4,5,1,8,3,7,2,6,2,6,3,7,4,8,5,1,
{32}2x,3x,4x,5x,6x,7x,8x,1x,2x,3x,4x,5x,6x,7x,8x,1x,7,6,5,4,3,2,1,8,7,6,5,4,3,2,1,8,
{1}7bx/Cf,
{8},,,,,,1,8,
{2}2h[4:1],7,
{8},,5,4,{4}6,3,
{1}2h[1:1],
7h[1:1],
1>8[4:7],
,Cfh[1:8],
E1,
E7,
E5,
E3,
E2,
{32}E8,{4},,,{16},,,{32}E6,
{1},E4,
E
