&title=SIN
&artist=ESTi
&first=-1.14
&des=LCai
&des_5=abc
&des_6=
&lv_5=14
&lv_6=1
&inote_5=(190){4},,,,{1}4h[1:1],
6>3[4:3],
5h[1:1],
3<6[4:3],
2h[1:1],
{8}8h[1:1],{4},,,{16}3,4,
{1}5h[1:1],
{2}4h[2:1],{24}A7,D7,A6,D6,A5,D5,A4,D4,A3,D3,A2,D2,
{1}1xh[1:1],
{4}3h[4:1],4h[4:1],5h[4:1],6h[4:1],
{2}7>8>1>2>3<4[4:7],E7,
E1,E3,
{1}5h[1:1],
3h[1:1],
2bw6[2:3],
,{8}E7/B6,
{4},{8}E2/B2,{4},B4/B5,
{8},{24}E2,E1,E8,B7,C,B3,E4,E5,E6,{2},{8}5b/4b,
3,4/2,2/4-8[8:1],,3,2,1,
7/8,7/8,6,3/5-1[8:1],,2,3,4,
6/5,{16}7,8,{8}7,1/6h[4:1],,{16}2,4,2-5[8:1],4,{8}2,
5,6,7,1/8-4[8:1],,{16}4,3,{8}2,1bh/6bh,
{4}6bh/1b-4[8:1],{8}5,7-2[8:1],,2,{4}4-8[8:1],
{8}5,6,7/1,7/1,{16}6/2,5/3,{8}4,,5/3,
{4}3/5-8[8:1],{16}8,1,{8}2-7[8:1],,{16}7,6,{4}5-1[8:1],
{8}4,3,8/2,8/2,{16}7/3,6/4,{8}5h[4:1],{4},{8}6,
4,5,{16}3,4,3,5,{8}2,{16}8,1,8,2,
{8}7,{16}5,6,4,7,{8}3,{16}1,2,8,3,{4}7,
2bV46[8:3],{8}6,6V83[8:3],,3,{4}3V51[8:3],
{8}1,1V35[8:3],,7,{4}7,8,
{24}7b,6,5>1b[6:1],4h[4:1],{12},,,,,,,{24}2b,3,4<8b[6:1],5h[4:1],{12},,,,,,,{16}1/2,
{8},{16}8/3,{8},7bh/4bh,
{4}7bh/4b-1[8:1],{8}1,7-4[8:1],,4,{4}2-7[8:1],
{8}5,5,6/2,6/2,{16}7,8,7,8,{8}7,6/1,
{4}1/6-4[8:1],{16}4,3,{8}2-5[8:1],,{16}6,7,{4}8-4[8:1],
{8}4,3,2,1,7/8,{16}6,5,{8}6,3/4,
{24}2/1-6[8:3],8,{12}7,{3},{24}4-1[8:3],3,{12}2,{3},{24}7-4[8:3],
6,{12}5,{3},{24}2,1,{12}8h[12:5],{3},{16}5,
1,6,2,7V51b[4:1],3V15[16:3],8,4,{2},{8}7b/8b,
6,5/3,5/3,{16}4,3,2,1,8,7,6,5,
4,3,2,1,3,2,1,8,2,1,8,7,1,8,7,6,
{4}3bV14[8:1],{8}8,6bV48[8:1],,3,{4}1b,
{8}7/1,6,5/4,{16}3,4,3,4,{8}3,{4}2/5h[4:1],
{8}3,2,7/1,7/1,{16}8,7,6,5,4,3,2,1,
8,7,6,5,7,6,5,4,6,5,4,3,5,4,3,2,
{4}7bV58[8:1],{8}4,2bV83[8:1],,8,{4}6bV48[8:1],
{8}3,1b>5[8:3]*<5[8:3],{4},,,{24}8b/1b,
7-3[24:11]/2-6[24:11],{12}6/3,{6},,,,,{16}2h[16:3],
{8},{16}3h[16:3],{8},4,{16}7h[16:3],{8},{16}6h[16:3],{8},5,
4/2b-6[8:1],{4},{8}8bw4[8:1],{2},{8}6b-2[8:1],
{4},{8}4bw8[8:1],{2},{1}8b>4[2:1]*<4[2:1],
2bp6[2:1]*q6[2:1],
{4}1b>4[4:1]/8b<5[4:1],{2},{8}5/4,{16}6,5,
6,5,{8}6,8/7,1/8,2/1,3h[8:3],5,7h[2:1],
E3/E4/B3,{4},{8}E8/E7/B7,{4},C/B4/B5,
{8},{24}E2,E1,E8,B7,C,B3,E4,E5,E6,{2}8b,
6b-8[8:1]/4b-8[8:1],{8}2,3,4,5,
{4}6h[8:1]/4h[8:1],7h[8:1]/5h[8:1],8h[8:1]/6h[8:1],7h[8:1]/1h[8:1],
{2}2b-4[8:1]/8b-4[8:1],{8}6,7,8,1,
{4}2h[8:1]/8h[8:1],3h[8:1]/1h[8:1],4h[8:1]/2h[8:1],3h[8:1]/5h[8:1],
{2}4/6bV83[2:1],3bV58[2:1],
8bV25[2:1],5bV72[2:1],
{1}2b-4-6-8[4:3],
4bw8[2:1],
{8}1h[4:1],4,5,2h[4:1],5,6,3h[4:1],6,
7,4h[4:1],7,8,5>1[4:1],6,7,8,
7h[4:1],4,3,6h[4:1],3,2,5h[4:1],2,
{2}1b-4[8:1],{8}7b-2[8:1],{4},{8}4bh,
4bh,1,8,3h[4:1],8,7,2h[4:1],7,
6,1h[4:1],6,5,8>4[4:1],7,6,5,
8,8,8,2,2,2,6-2[8:1],6,
4-8[8:1],4,5-1[8:1],5,3-7[8:1],3,8,8,
2b/1b,2/1,3/8,3/8,{16}4,7,5,6,4,7,3,8,
{8}2-8[8:1],3/7-3[8:1],6/2-4-1-5[4:1],7,{4},{8}6,7,
8b/7b,7/8,1/6,1/6,{16}2,4,3,5,4V28[4:1],6,5,7,
{4}8V64[4:1],4>8[4:1],8-4[8:1],4,
{8}5b/6b,5/6,4/7,7/4,{16}8,3,1,2,8,3,7,4,
{8}6-4[8:1],7/3-7[8:1],2/6V85-1[4:1],3,,4,3,2,
1b/2b,1/2,8/3,8/3,{16}7,4,7,4,6,5,7,4,
{8}8h[8:1],{16}3,4,2,5,1,6,{32}8,7,6,5,4,3,2,1,{4}8b/4b,
{8}1b-4[8:1],8,1/7,6,8-4[8:1],7,6/8,5,
1q5[8:1],8,7/1,6,1,2/8,3/7,4/6,
5-8[8:1],4,3/5,2,4-8[8:1],3,2/4,1,
5q1[8:1],4,3/5,2,5,4/6,3/7,2/8,
1-5[8:1],8,7/1,6,4-8[8:1],3,2/4,1,
7-3[8:1],6,5/7,4,2,1/3,8/4,7/5,
5b/6b,4/7,8/3,{16}2,1,3,8,{8}4,{16}7,8,6,1,
5,3,6,2,7,1,8,2,7,3,6,4,{8}5,1-5[8:11]/8-2[8:11],
E
&inote_6=(190){4},{1},,,,,,,,,,,,,,{4},,,{1}6bV84-2b[2:3]/1bs5b[2:3],
,{8}4h/6h,
{4},{8}2h/4h,{4},5h/7h,
{8},{24}4,5,4,5,4,5,4,5,4,{1},,,,,,,,,,,,{4},{6},{24}5,
4,
{4}3h[8:3]/6>7[4:1],{2},{4}7h[8:3]/2<3[4:1],
{8},,,,,,,1V74[8:3],
{1}8V63[8:3],
,,,{8}1V74[8:3],
{4},{8}3,2V85[4:1],{4},{8}4,
3V16[4:1],{4},{8}3,{2}2V84[4:1],
{16}1,2,8,7,2,3,7,6,{8}3,2/4,{4},1>4qq5[2:1],
{8}5,5,,7,{4}7,
{8}8<4qq5[2:1],8,1,1,8,8,7<2[4:1],7,
{1},,,,,,,{16}7h[16:3],
{8},{16}8h[16:3],{4},,,,,,,,,,,,,,,,,,,{2}4/8>8[2:1],
{16}8,1,2,3,4,5,6,7,
8,1,2,3,{8}8/4,8/5,8/6,8/7,8/1,2/8,
8h,{4},{8}2h,{4},6h,
{8},{24}4,5,4,5-1[8:1],4,5,4,5,4,{2}5b,
{1},,,,,,,,,,,,,,,,,,{4},,{8},{16}6,
4,7,3,8,2,
{4}1<6[8:1],1/5>2[8:1],5/7-3[8:1],7/1-5[8:1],
{1}1,
E
