&title=Get Back
&artist=CAP3
&first=0
&des=IcrgeAopt
&lv_6=13+
&inote_6=(128)
{16},,,,,,,,,,,,,,,,
{16}1b-3-5-7-1b[4:6]/8b-6-4-2-8b[4:6],,,,,,,,,,,,,,,,
{16},,,,,,,,,,,,,,,,
{16}1b-4-6<8b[4:6]/8b-5-3>1b[4:6],,,,,,,,,,,,,,,,
{16},,,,,,,,,,,,,,,,
{16}8b<5[4:1]/1b,,,,5-2[4:1],,,,2-7[4:1],,,,7-4[4:1],,,,
{16}4>1[4:1],,,,1-5[4:1]*-7[4:1],,,,,,,,,,,,
{16}5b<8[4:1]/3b,,,,8-4[4:1]*-2[4:1],,,,,,,,,,,,
{16}3x/E8,,,,6/E2,,,,1xw5b[8:1]/8xw4[8:1],,,,
{64}1x/8x,,,,,,,,,,,,,,,,
{64}3x/E6,B5,B4,E4,,,,,,,,,3,,,,
{16}4,,4,,4,2,,2,4,,3,,
{64}6x/E4,B4,B5,E6,,,,,,,,,6,,,,
{16}5,,5,,5,7,,7,5,,6,,
{64}2x/E8,B8,B1,E2,,,,,,,,,2,,,,
{16}1,,1,,1,3,,3,1,,2,,
{64}7x/E2,B1,B8,E8,,,,,,,,,7,,,,
{16}8,,8,,8,6,,6,8,,7,,
{16}3,,3,4,3,,3,,3,4,,4,3,,3,,
{16}6,,6,5,6,,6,,6,5,,5,6,,6,,
{16}1,8,2,7,3,6,4,5,3,6,2,7,
{32}1x,2x,3x,4x,5x,6x,7x,8x,
{64}1x/E6,B5,B4,E4,,,,,,,,,,,,,8x/E4,B4,B5,E6,,,,,,,,,,,,,3x/E8,B8,B1,E2,,,,,,,,,,,,,6x/E2,B1,B8,E8,,,,,,,,,,,,,
{16}7-5[8:1]/4-8[8:1],,,,7>5[4:1]/4,,,,
{8}5x<1[8:1],,7x,,
{16}6-8[8:1]/1-5[8:1],,,,6>8[4:1]/1,,,,
{8}8x<4[8:1],,6x,,
{16}3-1[8:1]/8-4[8:1],,,,3<1[4:1]/8,,,,
{8}1x>5[8:1],,3x,,
{16}2-4[8:1]/5-1[8:1],,,,2<4[4:1]/5,,,,
{8}4x>8[8:1],,2x,,
{16}7x<4[8:1],,7,8,7,,8>3[8:1],,1,,4<7[8:1]/8,,5,,2/4,,
{16}2x>5[8:1],,2,1,2,,1<6[8:1],,8,,5>2[8:1]/1,,4,,7/5,,
{16}8,1,7,2,6,3,5,4,6,3,7,2,
{32}8x,7x,6x,5x,4x,3x,2x,1x,
{64}8x/E4,B4,B5,E6,,,,,,,,,,,,,1x/E6,B5,B4,E4,,,,,,,,,,,,,6x/E2,B1,B8,E8,,,,,,,,,,,,,3x/E8,B8,B1,E2,,,,,,,,,,,,,
{16}3p6[4:1],,,,3/6<3[4:1],,,,
{12}5x,6x,7x,8x,,,
{16}6q3[4:1],,,,6/3>6[4:1],,,,
{12}4x,3x,2x,1x,,,
{16}2q7[4:1],,,,2/7<2[4:1],,,,
{12}8x,7x,6x,5x,,,
{16}7p2[4:1],,,,7/2>7[4:1],,,,
{12}1x,2x,3x,4x,,,
{16}7x>2[4:1],,,,2xq7[4:1],,,,7x<2[4:1],,,,2x<7[4:1],,,,
{16},,,,5-1[8:1]*-3[8:1],,,,5x<3[6:1],,,,8xh[16:3]/5x,,,,
{16}8,4,7,3,6,2,5,1,6,2,7,3,
{32}8x,7x,6x,5x,4x,3x,2x,1x,
{64}8x/E4,B4,B5,E6,,,,,,,,,,,,,1x/E6,B5,B4,E4,,,,,,,,,,,,,6x/E2,B1,B8,E8,,,,,,,,,,,,,3x/E8,B8,B1,E2,,,,,,,,,,,,,
{4}Cf,,,,,,
{64}3x/E8,B7,B6,E6,,,,,,,,,,,,,,,,,,,,,,,,,,,,,6x/E2,B2,B3,E4,,,,,,,,,,,,,,,,,,,,,,,,,,,,,
{4},,,,,,
{64}1x/E6,B5,B4,E4,,,,,,,,,,,,,
{4},,,,,,,
{64}5x/E2,B1,B8,E8,,,,,,,,,,,,,,,,,,,,,,,,,,,,,,,,,,,,,,,,,,,,,,,,,,,,,,,,,,,,,
{16}Ch[1:1],,,,,,,,,,,,,,,,
{64}2x,,,,,,,,2,,,,8,,,,2,,,,,,,,2x/E8,B7,B6,E6,,,,,3,,,,,,,,3,,,,5,,,,3,,,,,,,,3x/E6,B6,B7,E8,,,,,2,,,,,,,,2,,,,8,,,,2,,,,,,,,2x/E8,B7,B6,E6,,,,,3,,,,,,,,3,,,,5,,,,3,,,,,,,,3x,,,,,,,,
{64}7x,,,,,,,,7,,,,1,,,,7,,,,,,,,7x/E2,B2,B3,E4,,,,,6,,,,,,,,6,,,,4,,,,6,,,,,,,,6x/E4,B3,B2,E2,,,,,7,,,,,,,,7,,,,1,,,,7,,,,,,,,7x/E2,B2,B3,E4,,,,,6,,,,,,,,6,,,,4,,,,6,,,,,,,,6x,,,,,,,,
{64}3x,,,,,,,,3,,,,5,,,,3,,,,,,,,3x/E6,B6,B7,E8,,,,,2,,,,,,,,2,,,,8,,,,2,,,,,,,,2x/E8,B7,B6,E6,,,,,3,,,,,,,,3,,,,5,,,,3,,,,,,,,3x/E6,B6,B7,E8,,,,,2,,,,,,,,2,,,,8,,,,2,,,,,,,,2x,,,,,,,,
{64}6x,,,,,,,,6,,,,4,,,,6,,,,,,,,6x/E4,B3,B2,E2,,,,,7,,,,,,,,7,,,,1,,,,7,,,,,,,,7x/E2,B2,B3,E4,,,,,6,,,,,,,,6,,,,4,,,,6,,,,,,,,6x/E4,B3,B2,E2,,,,,7,,,,,,,,7,,,,1,,,,7,,,,,,,,7x,,,,,,,,
{64}3x/E8,B8,B1,E2,,,,,,,,,3,,,,4,,,,,,,,4,,,,2,,,,,,,,2,,,,4,,,,,,,,4,,,,,,,,3,,,,,,,,
{64}6x/E2,B1,B8,E8,,,,,,,,,6,,,,5,,,,,,,,5,,,,7,,,,,,,,7,,,,5,,,,,,,,5,,,,,,,,6,,,,,,,,
{64}2x/E6,B5,B4,E4,,,,,,,,,2,,,,1,,,,,,,,1,,,,3,,,,,,,,3,,,,1,,,,,,,,1,,,,,,,,2,,,,,,,,
{64}7x/E4,B4,B5,E6,,,,,,,,,7,,,,8,,,,,,,,8,,,,6,,,,,,,,6,,,,8,,,,,,,,8,,,,,,,,7,,,,,,,,
{16}1,5,1,5,1,5,2,6,2,6,2,6,3,7,3,7,3,7,4,8,4,8,4,8,4,8,3,7,2,6,1,5,2,6,3,7,4,8,3,7,2,6,1,5,
{32}1x,2x,3x,4x,5x,6x,7x,8x,{64}1x/E6,B5,B4,E4,,,,,,,,,,,,,8x/E4,B4,B5,E6,,,,,,,,,,,,,3x/E8,B8,B1,E2,,,,,,,,,,,,,6x/E2,B1,B8,E8,,,,,,,,,,,,,
{64}1b/5b,,,,,,,,,,,,,,,,1/5x,E6,B6,B7,E8,,,,,,,,,,,,
{12}1xh[24:1]/8xh[24:1],2xh[24:1]/7xh[24:1],3xh[24:1]/6xh[24:1],
{64}4x/5x,E4,B3,B2,E2,,,,,,,,,,,,
{64}1x/5,,,,,,,,,,,,,,,,1x/5,E2,B2,B3,E4,,,,,,,,,,,,
{12}4xh[24:1]/5xh[24:1],3xh[24:1]/6xh[24:1],2xh[24:1]/7xh[24:1],
{64}1x/8x,E8,B7,B6,E6,,,,,,,,,,,,
{64}1/5x,,,,,,,,,,,,,,,,1/5x,E6,B6,B7,E8,,,,,,,,,,,,
{12}1xh[24:1]/8xh[24:1],2xh[24:1]/7xh[24:1],3xh[24:1]/6xh[24:1],
{64}4x/5x,E4,B3,B2,E2,,,,,,,,,,,,
{64}1x/5,,,,,,,,,,,,,,,,1x/5,E2,B2,B3,E4,,,,,,,,,,,,
{12}4xh[24:1]/5xh[24:1],3xh[24:1]/6xh[24:1],2xh[24:1]/7xh[24:1],
{64}1x/8x,E8,B7,B6,E6,,,,,,,,,,,,
{64}1b/5b,,,,,,,,,,,,1,,,,5x,E6,B6,B7,E8,,,,1x,E2,B2,B3,E4,,,,
{12}8xh[24:1]/4xh[24:1],3xh[24:1]/7xh[24:1],2xh[24:1]/6xh[24:1],
{64}1x/5x,E2/E6,B2/B6,B3/B7,E4/E8,,,,,,,,,,,,
{64}8x/4x,,,,,,,,,,,,8,,,,4x,E4,B3,B2,E2,,,,8x,E8,B7,B6,E6,,,,
{12}1xh[24:1]/5xh[24:1],6xh[24:1]/2xh[24:1],7xh[24:1]/3xh[24:1],
{64}8x/4x,E8/E4,B7/B3,B6/B2,E6/E2,,,,,,,,,,,,
{64}5b/1b,,,,,,,,,,,,5,,,,1x,E2,B2,B3,E4,,,,5x,E6,B6,B7,E8,,,,
{12}4xh[24:1]/8xh[24:1],7xh[24:1]/3xh[24:1],6xh[24:1]/2xh[24:1],
{64}5x/1x,E6/E2,B6/B2,B7/B3,E8/E4,,,,,,,,,,,,
{64}8x/4x,E8/E4,B3/B7,B2/B6,E2/E6,,,,,,,,,,,,2x/6x,E2/E6,B1/B5,B4/B8,E4/E8,,,,,,,,,,,,7x/3x,E8/E4,B8/B4,B5/B1,E6/E2,,,,,,,,,,,,5x/1x,E6/E2,B2/B6,B3/B7,E4/E8,,,,,,,,,,,,
{64}4>1[8:1],,,,,,,,4,,,,8,,,,4,,,,,,,,8x,E8,B7,B6,E6,,,,1x,,,,5x,,,,2,,,,6x,,,,3x,,,,7,,,,4x,,,,,,,,
{64}8<5[8:1],,,,,,,,8,,,,4,,,,8,,,,,,,,4x,E4,B3,B2,E2,,,,1x,,,,5x,,,,2,,,,6x,,,,3,,,,7,,,,4,,,,8x,,,,
{64}4>1[8:1],,,,,,,,4,,,,6,,,,4,,,,,,,,6x,E6,B5,B4,E4,,,,1x,,,,3x,,,,2,,,,4x,,,,3x,,,,5,,,,4x,E4,B3,B2,E2,,,,
{64}5<8[8:1],,,,,,,,5,,,,3,,,,5,,,,,,,,3x,E4,B4,B5,E6,,,,8x,,,,6x,,,,7,,,,5x,,,,6x,,,,4,,,,5x,E6,B6,B7,E8,,,,
{64}1>4[8:1],,,,,,,,1,,,,5,,,,1,,,,,,,,5x,E6,B6,B7,E8,,,,4x,,,,8x,,,,3,,,,7x,,,,2x,,,,6,,,,1x,E2,B2,B3,E4,,,,
{64}8<5[8:1],,,,,,,,8,,,,4,,,,8,,,,,,,,4x,E4,B3,B2,E2,,,,5x,,,,1x,,,,6,,,,2x,,,,7x,,,,3,,,,8x,E8,B7,B6,E6,,,,
{16}4,5,3,6,2,7,1,8,2,7,3,6,
{32}4x,3x,2x,1x,8x,7x,6x,5x,
{64}4x/E8,B8,B1,E2,,,,,,,,,,,,,5x/E2,B1,B8,E8,,,,,,,,,,,,,4xw8b[8:1]/5xw1[8:1],,,,,,,,,,,,,,,,
{64}4x/5x,,,,,,,,,,,,,,,,Cf,,,,,,,,,,,,,,,,,,,,,,,,,,,,,,,,,,,,,,,,,,,,,,,,,,,,,,,,,,,,,,,,
