&title=レイン
&artist=シド 「鋼の錬金術師FA」より
&first=0.03
&des=江上夕弦
&lv_5=13
&inote_5=(95){4},{8},,,,,,,,,,,,,,2,
5,{16}3qq4[16:5],,,6h[16:3],,,,,,,,,{8}2,
5,{16}3qq5[16:5],,,7h[16:3],,,,,,,,,{8}2,
6,{16}3pp6[16:5],,,7h[16:3],,,,,,,,,{8}8,
1,{16}2>7[16:5],,,6h[16:3],,,,,,,,,{8}6,
4,{16}8qq4[16:5],,,3-1[8:1],,,,,,,,,{8}5,
2,{16}7qq4[16:5],,,3>8[8:1],,,,,,,,,{8}3/4<7[8:1],
2,{4}1,{8}6/5>2[8:1],7,{4}8,
{48}3,4qq4[4:1],5,6,{4},{16},,{24},{8}8z4[8:1],8,{4}8,
{8}4bq8[4:1]/2b>5[4:1],,,,,7/4,{16},2,{8}8,
{4}5bp1[8:1]/7b<4[8:1],5/7,{8}8qq1[16:3],5,{16},2,{8}2,
4b,8/4,7/4,6/4,4/5,{16}3,5,{8}2pp1[8:3],1/5,
{4}8h[16:3],{8}7,7,5/1,{16}3<6[8:1],4,{8}2,3,
8bp4[8:1],{16},,,,2,2,,6,{8}6,{4}5-8[8:1]/4qq1[4:3],
{2}5b/4b,8h[4:1],
{8}2/6>3[8:1],{16}7,1,{8}6,2pp1[4:1],{16},8,{8}2,6,6,
{4}5h[8:1]/1h[8:1],{8}7/8,3/4,1/2,6/5,{16}8,8,1,1,
{8}6bp2[8:1],4/2<7[8:1],{4}6,{8}4,{16}2/6,3/7,{8}4/8<1[4:1],1/2,
8/4h[4:1],{16},,,,3qq1[16:1]/7qq5[16:1],2/6,,3/7,,,2,6,4,8,
{8}1>4[8:1],6/4q8[8:1],1,{16}7,7h[16:3],,,{8}8,1/2,3/4,
{16}6/5,8/4,,3/4,{8}1-4[8:1]/5v8[8:1],3/7,{4}1/5,{16}4,4,8,8,
{8}3bq7[8:1],5/7>2[8:1],{4}3,{8}5,{16}7/3,6/2,{8}5/1>8[4:1],8/7,
1/5h[4:1],{16},,,,6pp8[16:1]/2pp4[16:1],7/3,,6/2,,,7,3,5,1,
{64}8b,7,6,5,,,,,{16}2pp5[8:3],4,{8}3h[64:7],{64}1b,8,7,6-1[64:5],,,,,,,,,,,,,{8}6,,8/4,
{64}7b,6,5,4,,,,,{16}3-8[8:1],8,{8}2,{64}7b,6,5,4,{16},,,{24}6,5,7,3,4,2,8,1,8,
{8}2bq7[8:1],5/7>2[8:1],{4}2,{8}5,{16}7/3,6/2,{8}5/1>8[4:1],8/7,
1/5h[4:1],{16},,,,6pp8[16:1]/2pp4[16:1],7/3,,6/2,,,7,3,5,1,
{8}8<5[8:1],3/5p8[8:1],8,{16}2,2h[16:3],,,{8}1,8/7,6/5,
{16}3/4,1/5,,6/5,{8}8-5[8:1]/4v1[8:1],6/2,{4}8/4,{16}5,5,1,1,
{8}6bp2[8:1],4/2<7[8:1],{4}6,{8}4,{16}2/6,3/7,{8}4/8<1[4:1],1/2,
8/4h[4:1],{16},,,,3qq1[16:1]/7qq5[16:1],2/6,,3/7,,,2,6,4,8,
{64}1b,2,3,4,,,,,{16}7qq4[8:3],5,{8}6h[64:7],{64}8b,1,2,3-8[64:5],,,,,,,,,,,,,{8}3,,1/5,
{64}2b,3,4,5,,,,,{16}6-1[8:1],1,{8}7,{64}2b,3,4,5,{16},,,{24}3,4,2,6,5,7,1>8[1:2],,,{1}8b/1b,
E
