&title=LIFE
&artist=Neuro-sama
&first=0
&des=Rabi-Intelligence(Nanamor1-DrumSteP)
&lv_5=13+
&inote_5=(172)
{1},,
,,,,,,,,
4<2[2:1],
5<3[2:1],
6<4[2:1],
{8}7>5[2:1],,,,8,1,2,3,
{1}7V13V57[2:1],
8V24V68[2:1],
1V35V71[2:1],
{8}2h[4:1],,4-1[8:3],5-8[4:1],,,,,
{8}2h[4:1],,4,,3,3,1,,
7h[4:1],,5,,6,6,8,,
2h[4:1],,4,,3,3,8,5,
7h[4:1],,5,,6,6,1,4,
3h[4:1],,2,,4,4,1,,
6h[4:1],,7,,5,5,8<6[8:1],,
,,2<8[8:1],,,,5>3[8:1],,
,,7<2[4:1],,,,,,
3h[4:1]/4-2[8:1],,,,5-1[8:1]/1h[4:1],5,,,
8-6[8:1]/2h[4:1],,,,5h[4:1]/1-5[8:1],1,,,
8,8-4[8:1],5,2h[8:3],,3,3<6[8:1],,
1-5[8:1],1,7-3[8:1],,4,4,1,,
8-4[8:1],,8/3,,1-5[8:1],1,8,,
7-3[8:1],,7/2,,1-5[8:1],1,8,7,
{4}4>2[8:1],8<6[8:1],1<4[4:1],,
1<6[8:1],4>1[8:1],5>8[4:1],,
{4}4-1[4:3],,,,
8-5[4:3],,,,
1pp1[4:3],,,,
5pp5[4:3],,,,
2<7[4:3],,,,
6>3[4:3],,,,
1>8[4:3]*pp1[4:3],,,,
,,,2,
3-1[8:1],4,5-3[8:1],6,
7-5[8:1],8,1-3[8:1]/4-8[8:1],1/4,
7-5[8:1],3/7,1-7[8:1],1/5,
3-1[8:1],3/7,8-4[8:1]/5-7[8:1],8/5,
{8}4,4,3/5,3/5,2/6,2/6,1/7,1/7,
8<5[8:1],1,2,3,4>1[8:1],5,6,7,
{16}8,7,6,5,4,3,2,1,8/3,4,5,6,7,8,1,2,
3<5[8:1]/8,,,,2>7[4:1],,,,,,,,,,,,
{8}3>1[8:1],3,4>8[16:3],5,,,3<5[8:1],3,
1>7[4:1],8,,,1>3[8:1],8,7>7[8:3],6,
,,8,8,1-5[8:1],,7-3[8:1],7,
1-5[8:1],,7-3[8:1],7,1<4[4:1],,,,
{8}8<6[8:1],8,1<5[16:3],2,,,7>1[8:1],7,
5<3[4:1],4,,,6<8[8:1],5,4<4[8:3],3,
,,5,6,7-3[8:1],,7/1-5[8:1],,
1-3[8:1]/8-6[8:1],,1/8-4[8:1],,8,,3,2-6[8:1],
,2/8-4[8:1],,8/1-5[8:1],,1/7-3[8:1]*>2[8:1],,7<4[8:1],
,1pp1[4:1]/7,,1,,7<3[16:3],8,7/1,,2>6[16:3],1,2/8,,7>6[8:3],8,7/1,
,,1,2,3-8[8:1]/7-4[8:1],4,3/7<7[2:1],,
5,,7<7[2:1],,5,,7V13[4:1],,
3V57[4:1],,7V13[4:1],,3V51[4:1],,8-4[8:1],,
8,,6/2,,{12}3/7,4,5,6/2,7,8-4[8:1],
,,8/5,,,8-4[8:1],,,8/3V58[4:1],,,,
{1},,,,
{8}3V14-8-5-7[4:10],,,,,,,,,,,,,,,,
,,,,,,,,
6V85[2:1],,8,,5-1-4[2:1],,1,,
4V28-6[2:1],,,,,,,,
4>5[2:1],,,,,,,,
5<4[2:1],,,,,,,,
4bx-1-5-8[2:1],,,,,,,,
8bxv5[2:1]/2bxv5[2:1],,,,,,,,
4bx-7-1[2:1]/2bx-6[2:1],,,,,,,,
8bx-6v4[4:3]/4bx-8[4:3],,,,,,,,
{16},,,,{24},,8s4b[4:1]/1z5b[4:1],,,,,,8b/1b,,,,,,,,,,
{8}3>1[8:1],3,4p8b[8:1],5,,,3<5[8:1],3,
1q7b[16:3],8,,,1>3[8:1],8,7>7b[8:3],6,
,,8,8,1q5[8:1],,7p3b[8:1],7,
1q5[8:1],,7p3b[8:1],7,1<4[16:3],,,,
{8}8<6[8:1],8,1p5b[16:3],2,,,7>1[8:1],7,
5q3b[16:3],4,,,6<8[8:1],5,4<4b[8:3],3,
,,5,6,7-3[8:1],,7/1-5[8:1],,
1-3[8:1]/8-6[8:1],,1-5b[8:1]/8-4b[8:1],,8/1,,3,2-6[8:1],
,2/8-4[8:1],,8/1-5[8:1],,1/7-3[8:1]*>2[8:1],,7<4[8:1],
,1pp1[4:1]/7,,1,,7<3b[16:3],8,7/1,,2>6b[16:3],1,2/8,,7>6[8:3],8,7/1,
,,1,2,3-8[8:1]/7-4[8:1],4,3b/7b<7[2:1],,
Cf,,7<7b[2:1],,Cf,,7V13V57[2:1],,
Cf,,7bV13V51b[2:1],,Cf,,8b-4[8:1],,
8,,6/2,,{12}3/7,4,5,6/2,7,8-4[8:1],
,,8/5,,,8-4[8:1]/3-1[8:1],,,8b/3bV58b[4:1],,,,
{1},
{8}3h[8:5],,,5,,4,,,
3/6h[4:6],,,,,,,,
7,,,,5,,,,
3h[8:3],,,4,,,,,
6h[8:5],,,7,,5,,,
3V58[4:6]/6V41[4:6],,,,,,,,,,,,,,,,
E
