&title=ヒュブリスの頂に聳えるのは
&artist=qfeileadh feat.のあ
&first=-0.255
&des=デスペアの深淵に沈むのは
&lv_5=14
&des_5=デスペアの深淵に沈むのは
&inote_5=
(158){4},{24},,,,,,6x,5,6,4x/7x,{48},,,,{16}5,4x,,4,
{8}3x,{16}3,2x,{48},,,,,,{24}1,8,1,8,1,{12}7/2,{48},{16}7,{8}6x,{16}6,5x,
,5,{8}4x,{16}4,3x,,,5,4,,6x/7x,,3x/2x,,,{4}8x/6x,
{16}2x/4x,,,5x/7x,,,{8}3x/1x,{32}2x,3,4,5,6,7,8,1,
2x,3,4,5,6,7,8,1,2x/6,3/7,4/8,5/1,6,7,8,1,{4}2xV86V42[2:3],2b/Cf,
{8},,,,,,,,,,,4,
,,{4}Cf/5<4b[4:3],
,,,,6,
{16}8,1,,7,2,6,{8}3,{4}5/6xh[2:1],
5,{16}5,,,4,{8}5,3,{4}2xh[2:1],
4,{16}5,,,6,{8}5x,1/5,2/4,8,
7,7,5,5,4,1x/6x,2,2,
4,4,5,5,6,4/2,{16}6x,5,6,4/7,
,3x,4,3,{8}5/2,{16}1x/8,2/7,6/3,4/5,,,{4}E3/E2/B2f/5V73-1-5[2:3],
,,,,,,,6/4,
{1}B5f/E6/E5/1>3-7<5-1b[1:1],
{8},,,4/2h[8:3],{16},5,,,{4}6,
{24}B8,B7,,,,,,,,{8}3>6<3[8:5],{16},4,,,4,,,5,
,,{8}6,,7/5,{16},6,,,5/3,,,2,
{8}6,4/3-8-5-2[8:5],,6,6,7,,8,
{4}6,{16}5,4,,7,4,5,{8}2,7x/3x,4x/7x,
{16}7,5,{8}7,3x/7x,{16}2,5,{8}3,6/1,2x/5x,2x/4x,
{16}2,4,{8}2,{16}5x,4,6,3,7,2,{8}8,7x/1x,8x/2x,
{16}2,4,{8}2,7x/4x,{16}6,5,{8}6,4,3x,{16}2,4,
{8}1,6/8,,3x/5x,{16},5x/7x,,,{4}1x/7x,
{8}2b/B8f,,,7<3<7[2:1],{16},4,,,2,,,1,
,,{8}3,,,3/5,7/1,,7x/B5,
{4}2x/B4,{12}1x/7x,,5x/3x,,6/5,5/6,8x/3x,1,2,
4x/7x,5,6,2x/5,4,3,6/1,7,8,Cf/2xqq5[8:3],{24},,,,,,,,,,,,,{8}6,
7,8,{16}4/1qq5[2:1],,,4,
,,{8}3,,2,{16},,1,2,3>6[8:3],,,4,
,,{8}6<3[8:3],,5,,C,,,2/5,
2/4,1,{16}3,6,4,7,5,8,{4}6V84[8:5],
{8},,6,6,5,5,1,{16}2,4,
,,{8}2V84[4:1],{16},,,,,,6,7,8,,,3/5,
,,{8}4/6,,1/7,{4}6/2,{16}7,8,7,8,
6,5,6,5,1,2,1,2,4,3,4,3,6x,4,6,3,
7x,2,7,1,{32}2x,3,4,5,6,7,8,1,{4}2b/Cf,{16}3,4,3,5/2,
,6,5,6,{4}7/4,Cf/B7/B6/B2/B3,{8}6x/3x,{16}7-4[8:1],8,
{8}6,7/1,3x,{16}2-5[8:1],1,{8}3,2/8,7x,{16}7,5,
,5,{8}4,4x/2x,1,8,7,4x/7x<4[8:1],{16}8,1,
{8}7,3,5x/3x>8[8:1],{16}2,4,{8}3,6,3x/8x,{16}1,2,
1,2,6,5,6,5,7,8,7,8,{8}1/6,5x/2x,{16}4/7-4[8:1],8,
{8}1,7,3x,{16}6/2-5[8:1],1,{8}8,2,6x,{16}6,8,
,8,{8}1,3/6,7x/2x,1x-5[8:1]/8x-4[8:1],6x/3x,{16}1x/8x/Cf,,,3x,
,,{8}6x/8x,,4x,6x,2x,6/1,{16}7,8,
7,8,6,5,6,5,1,2,{8}E1f,7x,5x,{16}6,4,
{8}7,1pp4[4:1],8,8,7,6x,5x,{16}3,4,
,6,{8}5,4,3,2,1,{12}6x/Cf,,2x/Cf,
,8x/4x,,6x/Cf,,2x/Cf,,8x/4x,{48},,,,{16}2x,1,2,1,
3x,8,3,8,4x,7,4,7,5x,6,5,6,{8}3x-8[8:1],{16}4,5,
{8}3,{16}5,4,6x<1[8:1],4,7,3,{8}6/4,3,2x-6[8:1],{16}1,8,
{8}2,{16}5,5,3x>8[8:1],6,2,7,{4}3/8/D2f,{16}7x<4[8:1],,,1,
{8}7,3,,1x-4[16:1]*-6[16:1],3/7,1x/Cf/B8/B6/B2/B4,,,E6,
B5,,E2,{4}B1,{16}4x,5,4,5,
4,5,4,5,4,5,4,7x,5,6,2,4,3x,5,4x,6,
3,5,4,7,2,8,1,2x/7x,4,5,4,5,4,5,1x,3,
2,8,6,7x,3,4x,2,6,4,5,8x,7,1,8,1,8,
2,1,2,2,6,5,6x,4,5,4x,5,3,4x,3,6,4x,
5,3,5x,4,6,4x,5,4,6x,2,4,3x,7,5,6x,1,
3,2x,8,6,7x,3,4,1x,6,5,{8}4x/8x<3[8:1],{16},,,,,,,,2x/5x,
,,3x/6x,,,{8}7x/4x>7[8:1],{4},,{16},,{32}5,
4,5,4,{4}3x/6x,{12}5x/1-5[0.7595##3.7975],5/1x,1/5x,
7/3x,3/7x,{6}7/3x,{4},{16},,{24},{48}D2,D3,{24}D4,{4},,,{16},,{24},{48}D8,
D7,{24}D6,{4},,,{16},,{24},{48}4,
3,{24}2h[24:35],{4},,,{16},,{24},{48}4,
5,{24}6h[24:11],,,,,,,,,,,,,,{8}4,
5/4qq1[4:3],6,{4}7x,
{8}6,7,{4}8,{8}8qq5[4:3],2,{16}2x,,,3,
,,{8}4,,4,3,2,{16}5x/1x-5b[1.3215##0.0873],,,7xh[16:9]/3xh[16:9],
,,,,,,,,,,{8}1x/5x/Cf,{24},3,4,3,6,5,
6,2,4,2,7,5,{32}8,7,6,5,4,3,2,1,{4}8b/Cf,{8}5x,{16}7<4[4:1],1,
{8}8,7x/4x,,3,2,1,6x/2x>5[8:1],{16}1,8,
{8}2,7x,{32}8,7,6,5,4,3,2,1,{4}8/4,{12}3x/Cf,,7x/Cf,
,5x/1x,,3x/Cf,,7x/Cf,,1x/5x,{24},,3x,4,3,4,3,4,
2x,5,2,5,2,5,1x,6,1,6,1,6,{4}1x/B5f,{8}3x-8[8:1],{16}4,5,
{8}3,{16}5,4,6x<1[8:1],4,7,3,{8}6/4,3,2x-6[8:1],{16}1,8,
{8}2,{16}5,5,7x,8,6,1,5,2,{8}4,4x/3x,3/4,
6x/5x,6/5,8x/7x,7/8,1x/2x,1/2,{16}4x,5,4x,6,
4x,7,4x,8,{32}4x,5,6,7,8x,1,2,3,4x,5,6,7,8x,1,2,3,{4}4x/6xh[4:1],
Cf,{16}5x,6,5,6,2x,1,2,1,3x,4,3,4,
8x,7,8,7,{32}1x,2,3,4,5,6,7,8,1x,2,3,4,5,6,7,8,1x,2,3,4,5,6,7,8,
{4}1/Cf,{16}4x,5,3,5,4x,6,4,5,2x,5,4,7,
4x,5,3,6,{32}1x,2,3,4,5,6,7,8,1x,2,3,4,5,6,7,8,{16}1x,7,8,7,
8x,7,8,7,1x,6,8,7,1x,6,8,7,1x,6,8,7,
8x,7,8,7,1x,6,2,5,3x,4,2,5,1x,6,8,7,
8x,6,5,6,5x,1,2,1,4x,3,5,3,4x,2,4,3,
5x,3,4,2,{32}3x,4,5,6,7,8,1,2,3x,4,5,6,7,8,1,2,{8}3xv8[8:1],{16}3,6,
{8}6,5,6xv1[8:1],{16}6,3,{8}3,4,2x,{16}6,8,
,8,{8}1,{16}2x,5,3,6,4,7,5,8,{8}6x>3[8:1],{16}6,8,
{8}8,7,6xv1[8:1],{16}6,3,{8}3,5,5x,{16}5,4,
,4,{8}3,{16}3x,8,2,7,1,6,8,5,{8}1x/7xv4[8:1],{16}6,8,
{8}7,1,8x/2xv5[8:1],{16}3,1,{8}2,8,7x,{16}7,5,
,5,{8}4,{16}2x,7,2,7,{4}1x/8x,{16}1x,8,1,8,
1,8,1,8,1,8,1,6x,8,7,3,1,2x,8,1x,7,
2,8,1,7,2,6,3,4x/5x,2,8,1,6,3,5,{8}2x/5x,
{16}2,2x/8x,,7,{8}5x/7x,{16}4,4x/8x,,2,{8}2x/6x,{16}5,2x/5x,,6,
{8}6x/8x,{16}3,3x/1x,,4x/3x,,5x/6x,,2x/3x,,7x/6x,,2x/1x,,8x/7x,
,8x/1x,,5,{8}6x/3x,{16}4,5,7x/2x,,,5x/8x,,,{8}1x/4x,
{32}8x,7,6,4,3,2,7,6,5x,3,2,1,6,5,{16}4,{32}6x/2x,3/7,4/8,5/1,6,7,8,1,{4}2x,
{1}3bq5[16:17]*q5>5b[4:11]`7bq1<1[4:11],
E
