&title=REK421
&artist=ariiol
&first=0.02
&des=磷化锆
&lv_5=14
&des_5=磷化锆
&inote_5=
(191.37){4},{8},,,,,,,E5h[8:13],
{4}B6/B3,,C,
,B3/B6,,C,
{16}E6h[4:7],E4h[16:23],,,{4}B4/B5,,E3`E7,
,E5,,B3/B6,
Ch[4:7],B7/B2,,E1,
,E8/E2,,D1,
E6h[2:1],{24}E3,B3,{6}B4,E4h[2:1],{24},,E7,B6,{6}B5,
{4}B6h[2:1],{24}A2,E2,{6}E1,B3h[4:1],{12},{4}B8,
7x/1bxh[2:3],B5,,B7,
,B5,,7/B3,
8h[1:1],B4,,B2,
,B4,5,B6,
{8}1,1,B8,2,7,7,C,6h[16:1],
1,1,B5,3,6,6,C,7,
{16}1,2,3,4,6,7,8,1,5,4,3,2,{24}6,5,4,3,2,1,
{2}4/8h[2:1],4-8b[8:1],
{32}6h[4:1]/2h[4:1],,,,,,,,,E7`E3,B7`B3,B8`B4,,,,,{8}5xh[8:1],1,C,6-3[8:1]/2-7[8:1],
,2/6,,1/5,{2}3-7[8:1]/7-3[8:1],
{32}1h[4:1]/5h[4:1],,,,,,,,,E2`E6`E7,E3`A7,A3,,,,,{8}8xh[8:1],4,C,2-5[8:1]/6-1[8:1],
,2/6,,3/7h[4:1],4,2-5[8:1],{4}1,
6h[4:1],{32}A4,E4,E3,A2,,,,,{4}5h[8:1]/1h[8:1],{8}B7/B3,4/8,
{4}6/2pp1[4:1],{8}5,6,{4}7pp6[4:1],1,
2h[4:1],{32}A5,E6,E7,A7,,,,,{8}4/8,B5/E6,E2/B1,7,
7/B5,B8,4h[8:1],6h[8:1],{16}3,3,8,1h[16:3],,,{8}6,
{2}2-5[8:1]/7-4[8:1],{8}6h[8:1],5,4,3-5[8:1]/6-2[8:1],
,,,1,4/8z4[4:1],3,{4}2,
1h[4:1],{32}A4,E5,E6,A6,,,,,{8}7/2,B3/E3,B5/E6,1b-5b[8:1],
,,7,{24}4,3x,2x,{8}1xh[4:1],7-4b[8:1],{4}6,
3h[4:1],{32}A8,E8,E7,A6,,,,,{4}5/1-3[8:1],{8}6,7,
{4}8/1-3[8:1],B5,{2}1-3[8:1]/6qq7[4:1],
{4}2xh[4:1],{32}A8,E8,E7,A6,,,,,{8}4/5,3,6,1,
1h[4:1],{16}4,5,6,7,{8}8,{16}3,3,,7/4,,,{8}5/2,
Ch[4:1],,,7,{6}1,{12}1,4,,3/5,
,,{6}6,{12},5,{4}6-8[8:1],4qq3[4:1],
6x,5,{6}7,{12}3,4,,1-5[6:1],
,,{6}6,{12},7,{4}7/E3,E7/1qq2[4:1],
4x,{12}5,,6,{6}4,{12}5,3,,2/1,
,,{6}8/7,{12},4,{4}5-8[8:1],3,
{6}1/7,{12}3,5,,6,{6}4,{12}3q5[12:7],5,,C,
{4},,{16}E1,D1,,,{4}2h[2:1],
{2}5h[4:1],{8}6,6,,7h[4:1],
{4}B5,E1/B8,4,{8}3pp8[2:1],E8/B8,
,,,C,7<5[8:1],,,D2/A2,
{16},,6,5,{4}7V15[2:1],E3,B4,
{8}3h[8:3],,,B6,1,1,5,E3/B3,
,5,4,4h[4:1],,2-6[8:1],,B4/B5,
{24}A3,E3,{12}E2h[12:5],{24},,,,,,,,A6,E7,{12}E8h[12:5],{24},,,,,,,,4x,
3xV57V13[3:4],{12}2xq4b[3:2],{1},{4},,,{16},{48},{24}E7/E3h[4:1]/B2h[8:5],
B6,{12}B5,{4},,,{16},{48},{24}E2/E6h[4:1]/B5h[8:5],
B2,{12}B3,{4},,,{16},{48},{24}E7/E4h[4:1]/A3h[8:5],
B7,{12}B8,{4},,,{16},{48},{24}E3/E8h[4:3],
B3,{12}B4,{24},,,,,,,,E1/A7h[4:1],B1,{12}B2,{24},,,,,,,,E7/B4h[8:5]/E4h[4:1],
B6,{12}B5,{4},,,{16},{48},{24}E7/B3h[4:1]/E3h[8:5],
E6,{12}A5,{4},,,{16},{48},{24}E2,
E3,{12}E4h[12:5],,{4}E1,{24}E8,E7,{12}E6h[12:5],,{4}E1,
{24}E3,E4,{12}E5,,{4}E1,{2}Ch[4:1],
{4}1bx,6h[4:1],{8}4,4,5,2,
8,E7,8,B2,8,E6,{4}7,
1/B5,{8}2,6,3,4,2,5,
1,E7,1,B4,{2}2-5-2[4:1]*-6b[8:1],
{8}7x,7,8x,8,6x/B4,6,2x/B7,{16}2,1,
{8}3x,3,6x,6,{32}1xh[8:1],,,,,E2,B2,B3,8xh[8:1],,,,,E8,B7,B6,
{16}4x,3,2,1,5x,6,7,8,2x,1,2x,1,{24}3xp1b[2:1],4,5,8x,7,6,
{4},,{16}8,7,6,5,4,3,2,1,
{2}4x/8w4[8:1],{4}1-3[8:1],{8}1/6,7,
2/8-6[8:1],4,8/2,3,{16}1-3[8:1],,,5,{8}1,6,
4/7-1[8:1],2,7/5,3,2-5[8:1],2,6,6-8[8:1],
8,6/5,{16}4-1[16:3],3,2,1-5[16:1],{2}5w1[8:1],
{8}3x/7-5[8:1],1,7/3,4,{16}2-8[8:1],,,5,{8}2,4,
1/5-7[8:1],3,5/2,4,{16}3-1[8:1],,,6,{8}3,5,
7-5[8:1],4,7-1[8:1],2,7,{24}2<4[8:3],3,4,{8}5h[8:1],2x,
{4}3-8[8:1],3<1b[8:3],{2}2x-5b[8:1],
{24}4xq8[8:1]/8xq4[8:1],3x/7x,2x/6x,1x/5x,{48},,,,,,,,,,,,,,,,{16}C,E3,E6,B1,E8,B4,E7/B6,E2/B2,
E8,E1,A1,B5,B6,E7,E3,B3,{8}B4,B6/E7,E2/B2,E8/B8,
{16}1,2,3,7,6,5,3,2,1/8,7,6,5,{8}3/4,5/2-5[8:1],
,2/6,7,8,{16}5,8,5,8,4,7,3,6,
2b,3,4,7b,6,5,1b,2,3,2b,3,4,{4}5h[8:1]/1h[8:1],
{16}6b,7,8,2b,3,4,1b,2,3,7b,6,5,{4}8h[8:1]/4h[8:1],
{16}3,5,4,6,5,7,{8}3h[8:1],{16}4,3h[8:1],,1,{32}D1,A8,D8,A7,{16}2,3,
4,6,7,8,2h[8:1],3,4,5,{24}1,2,3,4-8b[8:1],7,6,{4}5s1<5b[1:3]*s1>5[1:3],
{1}5b,
,,{4},{16},4,
5,4,{8}6,7/8-4b[0.3135##0.1568],5/4,6,
(190.875)7,(189.83)7,(188.79){16}6,5,(187.752){8}6,(186.71)7/4,(185.655){16}6,5,(184.598){8}6,(183.534)7/4,
(181.867)2,(179.587)2,(177.278){16}3,4,(174.937){8}3,(172.566)2/5,(170.161){16}3,4,(167.722){8}3,(165.274)2/5,
(162.424){16}6/4,7,(159.241)8,1,(155.993)3,4,(152.675)5,6,(148.859)8,1,(144.512)2,3,(140.53)5,6,(135.399)7,8,
(133.04){4}5h[16:1]/1h[8:1],5h[8:1]/1h[16:1],{16}4,6,3-7b[12:1],5,{4}1h[8:1],
{8}3bxh[8:1],8,{12}6,{24}3,5,,2,{12}4,{24}4,3,,3,{12}5,{24}4,6,,,{4}7bxh[8:1]/3bxh[8:1],
{12}2,{24}6,4,,7,{12}5,{24}5,6,,6,{12}4,{24}5,2,{48},,,,1xh[8:1]/5xh[8:1],
,,,,,,E2`E6,E3`E7,A3`A7,,,{12}4x,{24}1,5,,7,{12}3,{24}3,5-1b[12:1],,4,{12}6x,3,{24},,{8}2xh[8:1],
{48}D7,B6,B4,D4,,,{12}1x,{24}5,8,,6,{12}2,{24}2,5,,5,{12}3x,{24}3,6,,6,
{8}1bxh[8:1],4,{12}3,{24}6,4,,7,{12}5,{24}5,6,,6,{12}4,{24}5,3,,,{4}2bxh[8:1]/6bxh[8:1],
{12}7,{24}3,5,,2,{12}4,{24}4,3,,3,{12}5,{24}4,7,{48},,,,8xh[8:1]/4xh[8:1],
,,,,,,E8`E4,E7`E3,A6`A2,,,{12}5x,{24}8,4,,2,{12}6,{24}6,4-8b[12:1],,5,{12}3x,6,{24},,{8}7xh[8:1],
{48}D3,B3,B5,D6,,,{12}8x,{24}4,1,,3,{12}7,{24}7,4-8b[12:1],,5,{12}3bx,6,,{4}5xh[4:3],
C,{12},,,C,7xh[6:1],,{4}3xh[4:3],
C,{8},,C,2-8b[12:1],
{4}5b/4b,{12}6,{24}6,1,,5/7x,,6,4,7x,,3,{8}6,5-1b[12:1],
{4}3b/6b,{12}3,{24}3,1,,5xh[8:1],,,{12}3b,,6,{24}4,7,,3,
{8}2xh[8:1],5,{12}4,{24}4,6,,3,{12}5,{24}5,2,,6,{8}4h[8:1],8,
2bx/6xh[8:1],4,{12}5,{24}5,3,,6,{12}4,{24}4,7,,3,{8}5h[8:1],8-6b[12:1],
{4}6b/4b,{12}3,{24}3,5-8[12:1],,2/6,,,,{8}1,{12}4,{24}3,6-8b[12:1],,7,
{4}2b,{12}1-3[12:1],{24}2,7-5[12:1],,6,{8}1-5[12:1],7b-3[12:1],1q4b[4:1],7,
{1}1b,
,,,,,,,,,,,,,,,,,,,,,,,,,,,,,,,,,,{2},(190.857),
,,,,,,(133.04){1},
E
