&title=シャイニング☆アブラカタブラ
&artist=葉月ゆら
&first=-0.257
&des=油油又蜡蜡
&lv_5=13+
&inote_5=(149){4},,2h[8:1],2h[8:1],
3h[8:1],3h[8:1],5h[8:1],5h[8:1],
6h[8:1],7h[8:1]/8h[8:1],1h[8:1],1h[8:1],
2h[8:1],2h[8:1],4h[8:1],4h[8:1],
{8}3/5,{16}6,5,{4}8h[4:1],{16}2b,1,2,1,{8}3,4/8,
{16}7,8,7,8,{8}6,5/1,{16}2,4,3,4,{8}2,1/5,
{16}6>3[8:1],8,7,8,{8}6,1,{16}3,4,3,4,{8}2,5/1,
{16}6,5,6,5,{8}7,8/4,{16}3,1,2,1,3,8,2,7,
1-5[8:1],8,2,7,{4}1b,4h[8:1]/6qq4[16:3],3h[8:1],
1>4[8:1],5h[8:1],6h[8:1],7h[8:1],
{8}8/2>5[8:1],,,8,{4}4h[4:1]/1<6[8:1],{8}1,2,
{4}5h[4:1]/8>3[8:1],{8}8,7,6/4,{16}3,4,{8}2,1/8,
{16}6,4,5,3,{4}4h[8:1],5h[8:1]/3pp5[16:3],6h[8:1],
7<4[8:1],3h[8:1],2h[8:1],1h[8:1],
{8}2/5<8[8:1],,,4,{4}8h[4:1]/5>2[8:1],{8}5,6,
{4}1h[4:1]/4<7[8:1],{8}4,2,{16}1,8,1,8,2,7,2,7,
3,6,4,5,{4}1>4[16:3],4bqq5[4:1],5,
8<5[16:3],5pp4[4:1],4,1,
{8}2,2,6,6,7/3,{16}2,1,{8}3,3,
4/7,{16}6,5,{8}7,7,{4}2/8-6[8:1],8/1-5[8:1],
1/2-4[8:1],2/4,5h[8:1]/6qq7[16:5],4h[8:1],
2>5[8:1],{8}8/2,8,7/4,7,6/3,6,
5/2>5[8:1],,,8,{4}5h[4:1]/7>2[8:1],{8}7,4,
{4}1h[4:1]/3<6[8:1],3,{8}8/5,{16}7,4,{8}6,3/5,
{16}2,1,3,1,{4}2pp1[16:5],{8}2/7,7,6,6,
{4}8h[8:1]/5<8[8:1],{8}1/5,1,2/8,2,3/7,3,
6h[4:1]/4>1[8:1],,,5,{4}1/4h[4:1],{24}8,1,2,3,,,{4}7/5h[4:1],
{24}1,8,7,6,,,{8}4/2,{16}1,7,8,6,5,7,
3,4,{8}1,{4}8q5[8:1]/2>5[8:1],8b/2b,7h[2:3]/4h[8:1],
5h[8:1],6h[8:1],8h[8:1],1h[8:1],
2h[8:1],3h[8:1],{8}4/7,{16}6,5,{8}7,7,
5/2,{16}3,4,{8}2,2,{16}3,5,{8}4,{16}6,5,{8}8,
{16}2,1,3,7,5,6,3,4,{4}1h[4:1],{8}5h[8:1],2,
4h[8:1],7,5h[8:1],4,2h[8:1],1,7h[8:1],6,
5h[8:1],2,1h[8:1],3,8/4,{16}7,5,{8}6,6,
5/1,{16}2,4,{8}3,3,{16}6,5,8,2,1,4,8,5,
{8}6<1[8:1],7,{24}2,3,4,5,,,{8}7h[8:1],5h[8:1],7h[8:1],6h[8:1],
7h[8:1],8h[8:1],7h[8:1],1h[8:1],7h[8:1],2h[8:1],7h[8:1],3h[8:1],
7h[8:1],4h[8:1],6,5,7/4,6,{4}5qq5[16:3]*<8[8:1],
5,{8}1,1h[4:1],{16}5,4,3,2,1,8,7,6,
{8}5/1,4qq5[4:1],6,4,6pp5[4:1],6,,2-5[8:1],
{4}2,{8}7,7,{24}6,5,6,4,{48},{16}7,4,7,3,8,
3,8,2,1,2,1,{8}3,{16}4/7,,,3/5,,,{8}8/2,
{16}7/6,,,5/1,,,{8}2/8,6/4h[8:1],8,3/5h[8:1],1,
3/6,7/2,{32}1b/8b,2/7,6/3,4/5,,,,,{8}8/1,{16}2,4,{8}3pp2[4:1],1,
3,7,8<5[8:1],1,2-6[8:1],3,4<7[8:1],5,
{24}8-4[8:1],1,2,3,,,{8}8,2,7/4,{16}6,5h[32:5],{32}1b,8,7,6,,,,,{8}2/5,
{16}3,4h[32:5],{32}8b,1,2,3,,,,,{8}3/7,{16}4,6,{8}5h[8:1],8,
4/1h[4:1],{24}2,3,4,{8}5,8,6/2,{16}5,3,{8}4pp8[4:1],1,
4,2,2-5[8:1],1,6v1[8:1],7,3>8[8:1],2,
{24}7-3[8:1],6,5,4,,,{8}7,5,{16}3,4,3,4,{32}2b,1,8,7,,,,,{16}6,
5,6,5,{32}7b,8,1,2,,,,,{16}3,5,4,6,5,7,8,6,
1,5,{8}2,{32}3,4,5,6,7,8,1,2,{4}7-4[8:1]/3-8[8:1],7/3,
1<6[8:1]*>4[8:1],1,{24}3,4,3,5,{48},{16}2,5,2,6,1,
6,1,7,8,7,8,{8}6h[8:1],{16}3,5,{8}4h[8:1],{16}6,5,{8}8,
{16}3,3,4,2,5,5,4,7v4[16:3],{2}1bv4[8:1],
2h[4:1]/6h[4:1],{16}2b,4,3,4,{8}2,1/5,
{16}7,5,6,5,{8}7,8/4,{16}3,1,2,1,3,8,4,7,
5,6,4,7,{4}1h[4:1],{16}4,2,4,3,5,4,6,5,
7,5,6,4,5,3,4,2,{32}8,1,{16}8,2,7,1,8,2,7,
{8}1-5[8:1],{16}2,8,{4}1bp4[8:3]*q6[8:3],
E
