&title=やラララ (YARARARA)
&artist=AnythingBecomeMoe ft. Kasane Teto
&first=0.12
&des=ReizuP
&lv_5=13+
&des_5=ReizuP
&inote_5=
(125){4},,,,,,,,4/3,
3/4,5/3,5/3,
6/3,3/6,4/6,6/4,
6/5,6/5,6/4,3/6,
2/7,7/2,1/8,8/1,
{8}5/4,{16},,,,4,5,3,4,3,4,{8}3,4/5,
6/5,{16},,,,5,4,6,5,6,5,{8}6,6/5,
5/4,{16},,,,1,8,2,7,3,6,{8}4,5,
6/4v7[8:1],3,4/5v2[8:1],6,5/4-8[8:1],3,4/5-1[8:1],6,
{64}5b,C,,,,,,,,,,,,,,,{8}B6/E6/E7/A6,{16}1,8,2,1,2,1,{8}2,1/8,
{4}7/8,{8}B3/E4/E3/A3,{16}8,1,7,8,7,8,{8}7,7/8,
{4}8/1,{8}C,{16}1,8,2,7,3,6,{8}4,5,
5w1[1.44##0.24],,,,,5,{4}5b,
{8}4h[4:1]/2h[4:1],{16},,,,4,3,{8}4,{16}4,5,,5,{8}6,
7h[4:1]/5h[4:1],{16},,,,6,5,{8}6,{16}6,7,,7,{8}8,
8h[4:1]/2h[4:1],{16},,,,3,1,{8}3,{16}6,8,{8}6,C,
1-5[8:1],8-4[8:1],1-3[8:1],8-6[8:1],1>7[4:1],8,{4}1b,
{8}Cf,{16},,,,5,4,{8}5,{16}7,8,,2,{8}1,
8h[4:1]/1h[4:1],{16},,,,1,8,{8}7,{16}3,2/4,,6,{8}7/5,
6h[4:1]/3h[4:1],{16},,,,2x/8x,7x/3x,{8}4x/6x,{16}7x/1x,6x/2x,{8}5x/3x,4,
8/4,3/7,2/6,1/5,{2}8bh[4:1]/4bh[4:1],
,B3h[4:1]/B2h[4:1]/E3h[4:1],
{16}2-7[8:1],1,2,1,{8}2b,{16}3,3,{8}4,{16}6,5,,3,{8}4,
{16}6-3[8:1],5,6,5,{8}6b,{16}2,2,{8}1,{16}7,8,,2,{8}1,
{16}1-5[8:1],5,1,5,{8}1b,{16}6,7,{8}8/2,{16}3,4/5,,6,{8}1/7,
{16}8-4[8:1],4,8,4,{8}8b,{16}3,2,{8}1/7,{16}6,5/3,,2,{8}1/8,
{16}3,5,3,5,{64}3b,B3,C,B7,,,,,{8}6,5/3,{16}7,8,,3,{8}4,
{16}6,4,6,4,{64}6b,B6,C,B2,,,,,{8}8,2h[8:1],{16}8,3h[8:1],,7,{8}4,
{16}8,2,8,2,{64}8b,B8,C,B4,,,,,{8}2,1/3,{16}7,6,,3,{8}2,
{16}1,7,1,7,{64}1b,B1,C,B5,,,,,{8}4,6h[8:1],{16}4,7h[8:1],,3,{8}8,
{64}6h[4:1],,,,,,,,,,,,,,,,,B6,C,B2,{16}A2,{8}1,8/7,5/6,4/3,1/2,
{4}8w4[8:1],8b,1w5[8:1],1b,
{64}3h[4:1],,,,,,,,,,,,,,,,,B3,C,B7,{16}A7,{8}8,1/2,4/3,5/6,8/7,
{4}1,{64}1b,E1/E2,B8/B2/B1,B7/B3/C,E7/B5/E4/B6/B4,A6/D6/A5/D5/A4,,,,,,,,,,,{4}8,{64}8b,E1/E8,B1/B7/B8,B2/B6/C,E3/B4/E6/B3/B5,A3/D4/A4/D5/A5,,,,,,,,,,,{8}4h[4:1]/3h[4:1],
{16},,,,3,4,{8}2,{16}6,5,{8}7,1/8,
{4}1p4[8:1]/8q5[8:1],8b/1b,1-4[8:1]/8-5[8:1],{64}1b/8b,E1,A7/A2,E7/E3/C,A6/A3,E5,,,,,,,,,,,{8}1h[4:1]/8h[4:1],
{16},,,,1,8,{8}2,{16}8,1,{8}7,C,
8<2[4:1],2,{4}8,{2}E2h[4:1]/B1h[4:1]/B2h[4:1],
{16}3,4,3,4,,,6,5,{8}6,{16}2,1,,7,{8}8,
{16}B2,B6,B3,B7,,,,,{8}C,{16}E2,E6,,E8,{8}E4,
{4}3>5[2:1],E6,E8,E2,
7>5[2:1],E5,E3,{8}E1,4,
2-6[8:1],1,2/8-4[8:1],7,8/1q6[8:1],2,1,8,
{16}2,8,1,7,{64}8,B8,C,B4,,,,,{16}6,4,5,3,{64}4,B4,C,B8,{4},{16},{4}6h[16:3]/4h[16:3],
{16}5h[8:1]/3h[8:1],,,1b,,4,5,3,{8}4-8[0.24##0.24],4,
{4}2h[16:3],{16}1h[8:1]/7h[8:1],,,5b,,1,8,2,{8}1-5[0.24##0.24],1,
7-1[8:1],8,7/2-6[8:1],3,2/5-3[8:1],4,5,1,
{16}2,1,2,1,{64}2,E3,B3,B4,{16}E5,7,8,7,8,{64}7,E7,B6,B5,{16}E5,{4}Ch[4:1],
6pp1[2:1],6/E8/B7/B8,E4/B4/B3,E8/B7/B8,
2pp5[2:1],2/E4/B3/B4,E8/B8/B7,E4/B3/B4,
4,{8}C,{16}3,4,{8}3,{16}6,5,{8}6,{16}2,1,
{8}2-6[8:1],1-5[8:1],2-4[8:1],1-7[8:1],2,1,{4}B5/B6/E6/D6/A6/A5,
E4h[1:1],{64}E7,B6,B5,E5,,,,,,,,,,,,,{4}1<5[4:1],1,
E6h[1:1],{64}E3,B3,B4,E5,,,,,,,,,,,,,{4}8>4[4:1],8,
{8},,C,{16}1x/2x,3x/8x,{8}4x/7x,{16}8x/7x,6x/1x,{8}5x/2x,{16}8x/1x,2x/7x,
{8}3x/6x,6x/3x,5/2,2/5,{16}1,5,2,6,3,7,4,8,
{24}6b,7,8,1,2,3,6b,7,8,1,2,3,{2}Ch[4:1],
,Ch[4:1],
{8}C,{16},,,,E2,E3,{8}E4,{16}E8,E7,{4}E6,
6bw2[8:1],6b,3bw7[8:1],3b,
3h[4:1],{8}E8/B7/A7/D8,{16}2,1,{8}2,{16}7,8,{8}7,C,
{2}1xw5[8:1]/8xw4[8:1],{4}1>4[8:1]/8<5[8:1],{64}8b/1b,E8/E2,B7/B2,E7/E3,B6/B3,E6/E4,,,,,,,,,,,{8}B7h[4:1]/E7h[4:1]/B6h[4:1]/B2h[4:1]/B3h[4:1]/E3h[4:1]/Ch[4:1],
,,1,2/8,3,4/2,5,
{4}6p2[8:1]/4q8[8:1],6/4,3q7[8:1]/5p1[8:1],5/3,
E8h[4:1]/E2h[4:1],{64}B7/B2,B6/B3,B5/B4,E5,,,,,,,,,,,,,{4}E6h[4:1]/E4h[4:1],{64}B6/B3,B7/B2,B8/B1,E1,,,,,,,,,,,,,{8}1-4[8:1],
1-6[8:1],1w5[8:1],1b,{2}1b,
{16}8,2,8-4[0.24##0.24],2,{8}8,{16}2,2,{8}3/1,{16}8,7/1,,6,{8}7/5,
{16}1,7,1-5[0.24##0.24],7,{8}1,{16}7,7,{8}6/8,{16}1,2/8,,3,{8}2/4,
{16}5,5,5-1[0.24##0.24],5,{8}5,{16}3,3,{8}3,{16}7,7,,1,{8}1,
{16}1,1,1-5[0.24##0.24],1,{8}1,{16}7,7,{8}7,{16}3,3,,5,{8}5,
{16}2,4,2,4,3,5,3,5,4,6,4,6,5,7,5,7,
1,8,2,7,3,6,4,5,{32}4,3,2,1,8,7,6,5,{4}4b,
{16}4/3,4/3,4/3,4h[16:1]/3h[16:1],,,4,4,{8}5/3,{16}6/5,7/4,,4/3,{8}5/2,
{16}8/7,8/7,8/7,8h[16:1]/7h[16:1],,,8,8,{8}1/7,{16}2/1,3/8,,8/7,{8}1/6,
{1}Ch[1:2],
,B8/D3/D7/D4/D2/E8/D8/B7/E7/E6/B6/D6/B5/E5/B4/E4/B3/E3/B2/E2/B1/E1/D1/D5,
E
