&title=螺旋追憶の探索者
&artist=TAKIO vs siromaru feat. ぽめ
&first=0.037
&des=そんじゃバイバイ
&lv_5=14+
&des_5=そんじゃバイバイ
&inote_5=
(195){4},,,,{1}2v3-5[1:2],
{2},7,
{1}8v7-5b[4:7],
{2},2,
{8}1h[2:3],,,B4,,,{4}E7,
{8},E4,,,{4}8,6/4,
{8}8h[2:3],,,B5,,,{4}E3,
{8},E7,,,{4}1,6/4,
{8}7/5qq2[2:3],,,7,,,{4}7,
{8}8,,,8,,,{4}8,
{8}4/1qq6[2:3],,,4,,,{4}4,
{8}3,,,3,,,{4}2,
{8}1bx>4[8:1],,,6bxpp7[4:1],,,{4}2,
{8}1bx<6[8:1],,,4bxpp5[4:1],,,{4}2,
1>4[8:1],{8}6,7-3[8:1],,5-8[8:1],,7h[4:1],
,1,{4}2>7b[8:3],{2}6h[2:1],
{4}1-5[8:1],{8}5,6,{4}7V53[4:1],{8}4,2h[4:1],
,1,4h[8:1],6,1h[8:1],7,3h[8:1],5h[8:1],
{4}8>3[8:1],{8}5,6,{4}7V53[4:1],{8}2,2,
{16},,8,1,2,3,8,7,6,5,3,2,1,5,6,7,
{4}8bxh[8:1]/3bxh[8:1],6bxh[8:1]/5bxh[8:1],{6}2bxh[12:1]/8bxh[12:1],3bxh[12:1]/7bxh[12:1],4bxh[12:5]/6bxh[12:5],
,,,3bxh[12:1]/5bxh[12:1],7bxh[12:1]/1bxh[12:1],6bx/4bx,
{8}2,2,6,6,4,4,7,7,
8/2,{16}3,4,{8}3,{16}8,2,7,3,6,4,{4}Cf,
2<6[4:3],5,5,5,
4pp7[4:3],3,3,3,
2pp5[4:3],6,7,8,
1>4[16:3],3,2p6[16:3],5,
3bx<4q5<6[4:3],{8}1x,1x,,,{4}2,
2>4q5<7b[4:3],{8}6x,6x,,,{4}7,
8-4[8:1],{8}2,1,{4}1<6[8:1],5,
7h[4:1],{8}3,2h[16:3],{16}5,6,7,8,4,3,2,1-3-8-4[16:13],
{4}5,5,6,6,
7pp8<4[4:3],3,3,2,
2-8-6<7-1>2[4:3],5,5,5,
6>3[16:3],1,2-5[8:1],8,
{8}6bxh[4:1]/4bxh[4:1],,,5bxh[4:1]/2bxh[4:1],,,4,3,
5bxh[4:1]/7bxh[4:1],,,4bxh[4:1]/1bxh[4:1],,,{4}8/2,
6/4,{8}7/5,5/7,,4/2,,7h[8:3]/3h[8:3],
{16},,,,,,,,1,2,3,4,8,7,6,5,
{4}2-5[8:1],{8}7,7-3[8:1],,4>6[8:3],,5h[2:1],
,,,4,3h[8:1],6,5h[8:1],7,
{4}6>3[8:1],{8}8,8-4[8:1],,2<4[2:1],,7h[8:3],
{16},,,,,,,,8,7,6,5,1,2,3,4,
{4}8v6[4:1],{8}5,5V71[4:1],,,{4}8,
7<4[4:1],4>1[4:1],1<7[16:3],4h[4:1],
6,{8}5/3,3/5h[4:1],{16},,3,4,5,6,7,8,
5/1,4,3,2,1,8,7,6,5/2,1,8,7,6,5,{8}4,
{4}8-5[8:1],{8}3,3-7[8:1],,3/8<2[8:3],,8/4h[2:1],
,,,1,8h[8:1],2,1h[8:1],4,
{4}3<6[8:1],{8}1,1-5[8:1],,1/7<8[8:5],,7/4h[8:3],
,,,,{2}3h[2:1],
{1}6<3[4:3],
5<4b[8:5],
{8}8x/2x,6/5,,1x/7x,{4}3/4,{8}8/2,B6/B5/E7/E5,
,1/7,{4}B3/E3/B4/E5,8z4b[8:1]/1-5b[8:1],8b/1b/Cf,
7/2-5[8:1],{8}8/2,7,{4}6<2[16:3],{8}2/6,4h[4:1],
,2,{4}8b>3[8:1],6/8<5[8:1],8/4-8b[8:1],
{32}1<6[8:1],2,{16}3,,,{8}5x,5x-8[8:1],,3/5>2[8:1],,6/5,
{16},,7,2,6,4,7,3,{4}8>3[4:1],3>6[16:5],
5b,C,1<6[4:1],6<3[16:5],
4b,{8}5,6,{4}7-3[8:1],7/4,
5,{8}6/4,2-4[8:1]/8-4[8:1],,8b-6[8:1]/2b-6[8:1],,8b/2b,
,4,3/5,7h[16:3],{16}1,2,3,4,8,7,6,5,
{4}2h[4:1],{8}4-1[8:1],3,{4}4/6,{8}5,6,
{4}2/6h[8:3],{8}8<5[8:1],1,{4}8/3,1v4[8:1]*q5[8:1],
1b,{8}6,5/7-3[8:1],,7b/5<3[8:3],,8/5,
{24},,,,,,,,,5,6,7,{2}4h[4:1]/8-4[8:1],
{8}5/3,2,4/6,7,5/2,{16}3,4,{8}2,1/7,
6/8,5,2/8,3,8/7,{16}6,4,{8}5,7/3,
{4}1/5-7[8:1],{8}3/5,2-6[8:1],,2/8,{32},,,,8bx,7/1,6/2,5/3,
{1}4b>4[8:5]*<4b[8:5],
{8}7xqq6[4:1],4,3,2x,2xqq1[4:1],8,7,6,
5<8[8:1],5,2-5[8:1],2,7-4[8:1],7,3,2,
2x-5[8:1],5-3[8:1],6,7x,8x-2[8:1],2-6[8:1],3,4,
5>2[8:1],5,7-4[8:1],7,1-5[8:1],1,6,6,
3/7,4,7-5[8:1],5-8-4[4:1],3,1,2,3>7[4:1],
,7,6,5,{4}4xw8[8:1],Cf,
{6}2h[12:1]/6h[12:1],3h[12:1]/5h[12:1],4h[12:1]/6h[12:1],{24}2h[8:1],,,5h[8:1],,,{8}3h[8:1],6h[8:1],
{16}1,2,3,4,8,7,6,5,{32}1,2,3,4,5,6,7,8,{4}1/5b,
{16}7x,5,6,5,8x,4,5,4,7x,5,6,5,{8}8x,7bx/1bx,
{16}2x,4,3,4,1x,5,4,5,2x,4,3,4,{8}8x,{16}1bx/7bx,,
{8}2bx,2bxh[4:1],,,5bx/7bx,5bxh[4:1]/7bxh[4:1],{24},,,,,,{6}4h[12:1]/2h[12:1],
3h[12:1]/5h[12:1],4h[12:1]/6h[12:1],{48}8,,,7,,,{16}6,5,3,2,1,8,
{8}4h[8:1],{16}2,5h[8:1],,3,{8}6h[8:1],{16}4,7h[8:1],,5,{8}8,1/7,
2h[8:1],{16}5,3h[8:1],,6,{8}4h[8:1],{16}7,5h[8:1],,8,{8}6h[8:1],1,
2/8,8/2,6/4,6/4,5/3,3/5,7,7,
{24}4x,3,2,8x,7,6,3x,2,1,7x,6,5,{32}E2,E1,E8,E7,E6,E5,E4,E3,E2,E1,E8,E7,E6,E5,E4,E3,
{1}Ch[1:1],
E3h[1:1],
B8h[1:1],
{2}3h[2:1],{4}7>2[4:1],2v4[16:3],
{2}4,{4}7>2[4:1],2v4[16:3],
{6}4,3h[6:1],5h[6:1],4,{12},{4}7/5,
2-6[8:1],{8}6/2,5-8[8:1],,5/1w5b[8:1],,1b/Cf,
,,,,{4}4/2,5/7,
1-5b[8:1]/8z4b[8:1],8b/1b/Cf,2/6,{8}7/2>5[8:1],1,
2/8-4[8:1],1,8/2-6b[8:1],3,{4}2/5>2[8:1]*<8[8:1],A5f,
{8}1-5b[8:1],2,6/1,7>2[8:1],,7/3<2b[8:3],,8/3,
{24},,,,,,,,,5,6,7,{2}3h[4:1]/8-4b[8:1],
{8}3/6,7,5/3,2,4/7,{16}6,5,{8}7,8/2,
3/1,4,7/1,6,1/2,{16}3,5,{8}4,2/6,
{4}8/4-2b[8:1],{8}6/4,7-3[8:1],,7/1,,2/5,
{16}3,7,2,6,4,8,3,6,{32}1b,2,3,4,5,6,7,8,1,2,3,4,5,6,7-3[16:29],8,
{1}5bx/1bxh[4:5],
{4},,7-3b[8:1],7b/Cf,
{8}1,{16}6,5,{8}7,2-4[8:1],4,5-2[8:1],7,6,
6,5/1,2,6/4,7,{16}2,4,{4}1h[8:1],
{8}7/2,{16}3,4,{8}2,7-5b[8:1],5,4-7b[32:3],2,3h[24:5],
{16}8x,1,2,3,8x,1,2,3,7x,6,5,4,7x,6,5,4,
{4}8bx-4[8:1],2bx-5[8:1],{6}6bx-1[12:1],3bx-8[12:1],7bxh[12:5],
,,,4bxh[12:1]/3bxh[12:1],2bxh[12:1]/5bxh[12:1],6bx/1bx,
{16}7,4,6,5h[16:1],{8}7b,{16}2,5,3,4h[16:1],{8}2b,{16}7,4,6,5h[16:1],
{8}8b,{16}2,5,3,4h[16:1],{8}1b,8/2,8/2,6/3,3/6h[8:1],
{16}4,7,5,6h[16:1],{8}8b,{16}5,2,4,3h[16:1],{8}1b,{16}5,8,6,7h[16:1],
{8}1b,{16}4,1,3,2h[16:1],{8}8b,{32}3x,4,5,6,7,8,1,2,3,4,5,6,7,8,1,2,
{8}3h[4:7]/7h[4:1],,,6h[4:1],,,{4}5h[4:1],
{8},4h[4:1],,,{4}4-8[8:1],4,
{8}7h[4:7]/5h[4:1],,,4h[4:1],,,{4}3h[4:1],
{8},2h[4:1],,,{4}1,8b,
E
