&title=Silence is Golden, Speech is Golden
&artist=NIWASHI
&first=0.12
&lv_5=14
&des_5=shatterred
&inote_5=
(177){4},,,,{8}5<2[2:1],
{4},{8}3h[8:3],{2},{8}4>7[2:1],
{4},{8}6h[8:3],{2},{8}5<4q6[1:1],
{4},{8}3h[8:3],{4},,,{8},1-4[8:1]*-5[8:1],
,1,{4},8<3[2:1],
{8}1,2h[8:3],{2},{4}1>6[2:1],
{8}8,7h[8:3],{2},{4}8<5[4:1],
{8}1,2h[8:3],{4},{8},{16}4,3,
5,4,6,3,7,2,8,1,7,6,5,4,1,2,3,4,
{4}7/5h[4:1],{8}6,5,,6,5,4,
{4}3/1h[4:1],{8}2,1,,3,4,5,
{4}6/8h[4:1],{8}7,8h[4:1],,5h[4:1],,6<4[2:1],
{4},{8},5-8[8:1],,5,{4},6/8h[4:1],
{8}1,8,,6,5,4,
{4}3/1h[4:1],{8}2,1,,3,4,5,
{4}6/8h[4:1],{8}7,8-3[8:1],,8/6,,{16}5,4,
{8}5,3,3,{16}7,8,6,1,{8}5,4,3,
{4}5/2h[4:1],{8}1,2,,2,5,6,
{4}4/7h[4:1],{8}8,7,,7,4,3,
{4}5/2h[4:1],{8}1,2-6[8:1],,4h[4:1],,5h[4:1],
,7-3[8:1],,2-5[8:1],,8h[4:1],{4},7/5,
{8}6,4,,5,4,3,
{4}2/4,{8}5,6,,2,3,4,
{4}5/7-5[8:1],{8}8/7b,1,,7/2-5[8:1],,8/2,
,7/3,,6/3,{16}5,4,5,4,5,4,6,3,
{8}7,2-4[8:1],1,2,{16}6,5,{8}6,4h[4:1],8,
7,{24}1,2,3,{8}4h[8:1],5,6,7,,{16}3,4,
{8}2,7-5[8:1],8,7,{16}3,4,{8}3,5h[8:1],1,
2,6h[8:1],{16}4,6,{8}2h[8:3],{4},{16}1x,8x,7x,6x,
{8}5x/1x,{24}3,7,3,{8}7,5h[8:1],,4,3/5,2-5[8:1],
,2/7<4[8:1],,7/8-3[8:1],,5,,{16}4x,5x,
{4}6xh[4:1],{12}3,4,1,7,8,7,3,{24},{8}4,
2,6,5,4,{12}3,5,1,6,{24},{8}5/4,
{6}4/3,{24}7x,6x,{8}5x,1h[16:1],,7-4[8:1],8,7,
,2-5[8:1],1,2,,7-4[8:1],8,7,
1,6,3,{16}5,4,6,3,,6,3,7,2,8,
1h[8:1],{8},{16}1h[8:1],{8}5,1,{16}5,6,7,8,4,3,2,1,
{8}8/4,{24}6,2,6,{8}2,4h[16:1],,6-1[8:1],5,6,
,3-8[8:1],4,3,,6<1[8:1],5,6,
5,{16}4,5,{8}3,2/6,5,1,8/7,6/1,
{16}4bx/5bx,{8},{16}1bx/8bx,{8},3bx/4bx,6,{16}4,5,3,6,2,7,
{4}1-3[8:1],{8}6/1-5[8:1],6,1-3[8:1],7,{4}7/1<6[8:1],
4h[8:1]/1-3[8:1],{8}8/1-5[8:1],8,1-3[8:1],7,{4}7/1<6[8:1],
1/4h[8:1],{8}1,{16}5,4,6,3,,5,{8}3/5,7b-4[8:1]/1b-4[8:1],
,7b/1b,,1b/8b,7b/2b,3b/6b,1bq5[8:1],8,
{4}1,{8}8,1-5[8:1],2,1x,8,7<4[8:1],
8,7x,3,2>5[8:1],1-6[8:1],2x,1x,2,
5/4,5,5/1,1,1/3,1,1/7,1,
2-5[8:1],7-4[8:1],2x,7x,{16}1,6,2,6,3,6,4,6,
{8}5,4/6,3/7,2/8,1/6,1/6,8qq6[8:1]/2v4[8:1],8/2,
{1}8b/2b,
{4}E1,C,{8}E5,{4},{16}5,3,
{8}6-1[8:1],1-5[8:1],6,2,{16}3,{8},{16}3,{8}4,{16}2,1,
{8}2,8/3,7,3/6,{16}5,4,,4,,5,{8},{16}1x,
2,3,4,8x,7,6,5,1x,2,3,4,1x,8,7,6,
{24}2x,3,4,6x,7,8,5x,4,3,2,{12},{24}8x,7,6,5,{12}4,1xh[8:1],{6},{8}6-3[8:1],
3-5[8:1],6,2,{16}1,{8},{16}7,{8}8,{16}5,4h[16:3],
{8},1<6[8:1],2,1,4,3,4,5,
{16}5/7h[4:1],4,3,2,{8}1,{16}4/6h[16:3],3,2,1,{8},{16}4/5h[4:1],3,2,1,
{8}8,6,{24}1x,2x,3x,4x,{12},{16}7,5,7-3[8:1],5,{4}7,
{8}1V35[4:1],1,6,7,{16}8h[16:3],{8},{16}6h[16:3],{8},8,
{32}7,6,{16}5/1b-6[16:1],{8},{16}7b-4[16:1],{8},{16}2b-5[16:1],{8},1b<6[16:1],{4},{16}2x,
3,4,5,7x,6,5,4,1x,2,3,4,8x,7,6,5,
{24}2x,3,4,6x,7,8,5x,4,3,2,{12},{24}8x,7,6,5,{12}4,1xh[8:1],{6},{8}7-5[8:1],
8-4[8:1],7,8,7<4[8:1],8,{4}7,
{8}2-4[8:1],1-7[8:1],2,1,1w5[8:1],2,{4}1b,
{16}1,5,2,6,3,7,4,8,3,7,2,6,1,5,{8}8,
{16}1/5,5/1,,7/3,,5/1,,6/4,{6}6/4,{12}5xh[12:1],4xh[12:1],3xh[12:1],2x,
{4}1x>1[8:5],{2},{4}5x<5b[4:3],
,{8}4x,4xh[4:1],{2},{8}7<4[8:1],
7,1,1,,4/8q2[4:1],{4}8/4h[4:1],
,{8},{16}6,5,7,4,7,4,8,3,8,3,
{4}1b,{8}E3,E7,C,{4},{8}2,
{12}6,4,4,5,3,3,4,2,2,6,5,8,
4,7,7,3,6,6,{16}2/5,{4},{8},{16}6,
5,4,3,2,{8}1,7/6,,6/7,1>4[8:1],1,
{16},,,8xh,7xh,6xh,5xh,4xh,{8}3xh,1h,7h,5-7[8:1]*-3[8:1],
,5,,1/2,1/2,3,4>1[8:1]/5<8[8:1],4/5,
{2}4b/5b,{16}5,4,5,4,6,3,{8}6h[8:1],
{16}2,5,4,5,2,5,4,5,2,6,5,6,2,5,1,6,
{4}8>3[8:1],{8}5h,5h,7h,7h,1h,1h,
3h,3h,7<4[8:1],6,{32}7x/8x,1x,{16}2x,{8},{12}3,3,4,
{8}4/2,{16}6,5,{8}6,{16}7,8,{8}7,{16}2,1,{8}2,{16}3,4,
{8}3,2,1,7/8,6,5/4,{16}3,4,2,5,
{8}1<6[8:1],2,3,4>1[8:1],5,6,7-4[8:1],8,
7,{24}8,1,2,{8}3,5,6,7,8,1,
{16}5/4,{8},{16}3,2,1,7,6,{8}5/1,{16}2,6,3,7,4,8,
{8}5,{48}8/E5,B4,B3,E3,{6},{48}E8/E2,B7/B2,B6/B3,E6/E4,{4},{24},{16}4,5,3,6,
{8}2/7,{24}1,2,3,4,6,7,8,{12},{24}1,8,7,6,5,4,{8}3,{24}2,3,4,
{8}5,{24}5/8,4/7,3/6,{8}2/5,{24}5/2,6/3,7/4,{2}8/5h[8:3],
{8}8,{16}4,6,{12}2,6,4,{8}4,{16}5,3,{12}7,1,5,
{4}3h[8:1],{16}8,7,6,5,3,2,1,8,1,2,3,4,
{1}5<5[4:3],
1>1b[4:3],
{4}5<8[4:1],8>3[4:1],3<6[4:1],6<1[4:1],
1>4[4:1],4q1[4:1],1>4[16:3],4,
{8}8,8,4/7h[8:1],4,3/6h[8:1],3,2/5h[8:1],2,
{16}6/1,2,6/3,4,5/7,4,3/7,2,{8}8/1h[8:1],8,7/8h[8:1],7,
{16}6,3,7,2,{12}8,3,3,6,5,5,8,3,3,
5,5,5,4,4,4,6,5,4,3b/6b,{6},{16}8,
7,6,5,{24}8,1,2,3,4,5,8,7,6,4,3,2,5,6,7,3,2,1,
{32}7,6,5,4,1,2,3,4,7,6,{16}5,{32}3,2,{16},8,7,6,5,{8}4/3,3,
{16}8,7,6,5,{24}1,8,7,6,5,4,{32}8,7,{16}6,{32}4,3,{16}2,{8}8,{32}2,3,{16}4,
{32}8,7,6,5,{8}1,{24}2,3,4,5,6,7,8,1,2,5,6,7,{8}8/1,2,
{16}3/4,5,6,7,3,2,1,8,{24}5,6,7,8,1,2,3,4,5,6,7,8,
{32}2,3,{16}4,{32}6,7,{16},{32}1,2,3,4,5,6,7,8-4[32:3],{2}1h[4:1],
{16}1,2,3,4,{24}1,8,7,{96}6,{48},{96}5,{48},{16}4,{32}1,2,{16}3,{32}7,6,5,4,{8}1s5[8:1],1,
{4},{16}8,7,6,5,{32}1,2,3,4,5-1[16:1],6,7,8,{4}1h[8:1],
{16}3,7,3,7,1,7,1,7,5,7,3,7,{4}1h[8:1],
{16}2,6,2,6,8,6,8,6,4,6,2,6,{4}8h[8:1],
{16}3,7,3,7,1,7,1,7,5,7,3,7,{4}1h[8:1],
{16}2,6,4,6,2,6,8,6,{8}2h[4:1],5b,{4}4b,
{16}7,3,7,3,1,3,1,3,5,3,7,3,{4}1h[8:1],
{16}6,2,6,2,8,2,8,2,4,2,6,2,{4}8h[8:1],
{16}7,3,7,3,1,3,1,3,5,3,5,3,{12}7,6,5,
{4}4,{24}1/5,2,3,4,5,6,7/4,8,1,2,3,4,{8}5-8[12:1],4,
{1}5b,
