&title=人是猫
&artist=张卡斯
&first=-0.574
&lv_2=1
&des_2=
&inote_2=
(148){4},
E
&lv_4=11
&des_4=NIGHT IS CAT
&inote_4=
(148){4},{8},,,1,2,3,
4/7h[4:1],5,{16},,1,5,{8}3/8,3/7,{4}3/6,
{8}8/3h[4:1],6,{16},,8,7,{8}6/2,3/7,{4}8/4,
{8}7/2h[4:1],5,{16},,1,3,{8}8/4,5/1,{4}6/2q4[2:1],
{8},,,,,6,1,8,
7/3h[4:1],{16},,,,8,3,{8}4/8,4/7,{4}4/6,
{8}7,3h[8:1],{16},,7,6,{8}5/1,2/6,{4}3/7,
{8}2,6h[8:1],{16},,2,3,{8}4/8,7/3,{4}2/6z2[4:3],
{8},,,,,,,8,
{4}4,{8}E2,E8,E4,E6,8,2,
7/3,4,5,2-6[4:1],,,,,,8x,
2x,4x,{4}6x,{8}7,3,
6/1,5,4,3-6[4:1],,,,7,
{4}5,{8}E1,E2,E3,E4,7,6,
5/8,1,7,3,B8,B7,B4,B3,
Cf,8-5[1.4189##0.2027],5-1[1.4189##0.2027],1-4[1.4189##0.2027],{4}4-8[1.4189##0.2027],{8}6,3,
8b,,,,,,,6,
4/8>4[8:3],,,,,8,1,2,
6/4,1,7,3,E1,E8,E7,3/E6,
4/7>3[8:3],,,,,8,4,6,
5/1,2,7,4,E1,E2,E3,6/E4,
5/2<6[8:3],,,,,1,5,3,
4/8,7,2,5,,8,7/1,6/2,
{16}5,4,3,2,6/1,7,8,1,2/4,5,6,7,8,1,2,3,
4/Cf,,,,,C,,,,,{8}5,6,7,
8/3h[4:1],1,{16},,5,1,{8}7/4,7/3,{4}7/2,
{8}4/7h[4:1],2,{16},,4,3,{8}2/6,7/3,{4}4/8,
{8}3/6h[4:1],1,{16},,5,7,{8}4/8,1/5,{4}2/6q8[2:1],
{8},,,,,2,5,4,
3/7h[4:1],{16},,,,4,7,{8}8/4,8/3,{4}8/2,
{8}3,7h[8:1],{16},,3,2,{8}1/5,6/2,{4}7/3,
{8}6,2h[8:1],{16},,6,7,{8}8/4,3/7,{4}6/2z6[4:3],
{8},,,,,E1,E2,E3,
B4/B3,B5/B6,{16},,8,7,{8}6/1,6/2,6/3,6/4,
8/5,{16}2,8,1,7,8,6,7,5,{8}6,{16}2/8,3,{8}4,
7b/5,2,5,1,5,8,5,7,
3,5,6,7,1,2,3,{16}4,7,
{8}1/5,6,1,{16}3,4,{8}5/6,8/7,1/2,3/4,
7/6,{16}1/3,2,8,1,7,8,6,7,{8}5,1>4[8:1],{16}4,7,
{8}1,6,2,{16}8,3,{8}4/5,6/7,8/1,2/3,
6/5,8/7,1/2,{16}3/4,5,6bx,7,8,1,2,3,4,5,
{2}6h[4:1]/1h[4:1],{4}3h[8:1]/8h[8:1],{8}6/5,3-8[8:1]/4-7[8:1],
{16},,,,,,5,4,6,5,7,6,8,7,1,8,
{2}2h[4:1]/5h[4:1],{4}7h[8:1]/4h[8:1],{8}2/1,7-4[8:1]/8-3[8:1],
{16},,,,,,6,4,5,3,4,2,3,1,2,8,
1/7,4,{8}6,{16}5/1,2,{8}3,{16}4/7,3,5,1,{8}7,{16}2,3,
{8}4/5,6/5,6/7,7/8,{16}1/2,4,3,7,{8}6/5,{16}2,1,
8,7,{8}6/5,3/4,2/1,{16}5,6,{8}7/8,2/1,3/4,
{16}1,8,7,6,2,3,{8}4,5/1,2/6,3/7,{32}4/8,5/1,{16}2/6,
{8}7>3[8:3],,,,,8,1,2,
6/4,1,7,3,E1,E8,E7,3/E6,
4/7>3[8:3],,,,,8,4,6,
5/1,2,7,4,E1,E2,E3,6/E4,
5/2<6[8:3],,,,,1,5,3,
4/8,7,2,5,,8,7/1,6/2,
{16}5,4,3,2,6/1,7,8,1,2/4,5,6,7,8,1,2,3,
{8}4/Cf,8,2,6,1,4,8,5,
,4v1[0##10.7432]/8v5[0##10.7432],,,{2}E3/E7,
{8},B7/B3,,,{4}B6/B2,D7/D3,
{8},A7/A6,,,{2}A2/A3,
{8},A7/A2,,,D3/D7,A6,A3,A7,
A2,B2/E3/B6/E7,{4}C,E7/E3,C,
{8}B7/B2,B3/B6,{4}C,E7/E3,C,
{8},B7/C/B2,,E8/E2,E7/E3,E4/E6,{4}Ch[8:13],
{8},,,,,,,,,,,,
,1,2,3,
4/7h[4:1],5,{16},,1,5,{8}3/8,3/7,{4}3/6,
{8}8/3h[4:1],6,{16},,8,7,{8}6/2,3/7,{4}8/4,
{8}7/2h[4:1],5,{16},,1,3,{8}8/4,5/1,{4}6/2q4[2:1],
{8},,,,,6,1,8,
7/3h[4:1],{16},,,,8,3,{8}4/8,4/7,{4}4/6,
{8}7,3h[8:1],{16},,7,6,{8}5/1,2/6,{4}3/7,
{8}2,6h[8:1],{16},,2,3,{8}4/8,7/3,{4}2/6z2[4:3],
{8},,,,,E1,C,E5,
7h[2:1],6,5,4,{4}2h[4:1],6h[4:1],
{8}4h[2:1],8,1,2,8h[8:1],7h[8:1],{4}6h[4:1],
{8}1h[1:1],8,2,7,3,6,4,5w1[0.2027##0.8108],
,,,,,E5,C,E1,
3h[2:1],2,1,8,{4}6h[4:1],2h[4:1],
{8}8h[2:1],4,5,6,4h[8:1],3h[8:1],{4}2h[4:1],
{8}5h[1:1],4,6,3,7,2,8,1w5[0.2027##1.6216],
E
&lv_5=1
&des_5=
&inote_5=
(148){4},
E
&lv_6=1
&des_6=
&inote_6=
(148){4},
E
