&title=Dramatic...?
&artist=曲: Kijibato/ 歌:星咲 あかり、珠洲島 有栖、日向 千夏、皇城 セツナ
&first=-0.635
&des=XL FUFU -More pigs Remix-
&lv_5=14
&des_5=XL FUFU -More pigs Remix-
&inote_5=
(184){4},{8},,,,,,,,,,,,,,,,,,5,
6,7,8,
,,1,2,3,4,,,,,,,{4}2-7[2:1],
2h[2:1],
{8},,,,7-3[8:1],2,{4}7,
{8}1,8,7,6/5,,,5,4,
3,2/1,,,,,,,{4}6-3[2:1],
6h[2:1],{8},,,,3-7[8:1],
6,{4}3-8[8:1],2/3,1h[4:1],
8h[8:5],7,{8}7,6h[8:3],,5,
{4}4,{8}4,3,{16},,2,3,{8}7,7,
6h[8:3],5,4,3,3h[8:3],2,1,8,
{4}8h[4:1],6h[4:1],4h[4:1],2-6[8:15],
{2}6h[4:1],7h[4:1],
8h[4:1],1-5[8:1],
{8},1,8,2,7,6,5,4,
{4}3h[4:1],2h[4:1],1h[4:1],2h[4:1],
3-7[8:7],,,8-4[4:3],
{8},,,6-3[8:1],,,,,{4}2-6[8:1],
1-5[8:1],8-4[8:1],8<5[4:1],
5>2[4:1],2<7[4:1],7,3b,
{8}8-5[8:1],5,8,1,,,1-4[8:1],4,
1,8,,8-5[8:1],1-4[8:1],8,{4}1,
7-3[8:1],8-4[8:1],1-5[8:1],1-4[8:1],
1-6[8:1],1h[4:3],,,8h[4:1],
1h[8:5],2,{8}2,3h[8:3],
,4,{4}5,{8}5,6,{16},,7,6,
{8}3h[8:3],4,5,6,6h[8:3],7,8,1,
{4}1h[4:1],3h[4:1],5h[4:1],7-3[8:13],
,8-5[8:1],,1-5[8:1],
,2-5[8:1],,7b,
{8},8,1,7,2,3,4,5,
{4}6h[4:1],7h[4:1],8h[4:1],7h[4:1],
{16}6,7,6,7,6,7,6,7,{2}6-2[8:7],
{4},1-5[4:3],{8},,,3-6[8:1],
,,,,7,8,1,2,
{4}5/4,{8}5/6,7,8,1,2,3h[4:1]/4h[4:1],
,,3-6[8:1],4,3,5,,,6-1[8:1],
7,6,8,,1-6[8:1],8,1,
{4}7,{8}2,1,8,7,{4}4/5,
{8}4/3,2,1,8,{4}7h[2:1],5-1[4:1],
5,5h[4:1],{32},6b,7b,8b,1b,2b,3b,4b,{8}5b,1,
{4}7/1>4[32:3],{8}8,1,{4}4/2<7[32:3],{8}3,2,
{4}6/8>3[32:3],{12}8b,,8b,,8b,{24},,,,,{8}8,
{4}6/8>3[32:3],{8}7,8,{4}3/1<6[32:3],{12}1b,,2b,
,3b,,4b,,5b,,6b/7b,{24},,,,,{8}1,
{4}3/1<6[32:3],{8}2,1,{4}8-3[32:3],{8}6,5,
{4}4-7[8:1],{12}4b,,4b,,4b,{48},,,,,,,,,,{16}4,5,
3,6,{8}2h[2:1],{4}1h[8:3],{12},,,2b,1,1,
8b,1,1,2b,1,1,8b,1,{3}1,
{24},,,{8}1,{4}1>4[8:1],{6}1,1<6[8:1],1,
{8}3,4,{4}5,{8},8,{4}8<5[8:1],
{6}8,8>3[8:1],8,7,6,5,
4,3,{24}2/1,,,,,,,4,,,{4}4>1[8:1],
{6}4,4<7[8:1],4,{24}2,,,1,,,{4}8,
{16},1,8,1,8,2,7,2,7b,,,6b,,,{8}5b,
{16}4b,,,3b,,,{8}2b,{16}1b/8b,,,3b/1b,,,{8}8b/6b,
{1}4h[1:2]/5h[1:2],
,{32},3,
2,1,8,7,6,5,{8}8b/4-8[8:1],8-4[8:1],{2}4,
{8}4/8,7/3,2/6,1/5,{16}4/8,5/1,6/2,7/3,{8}4-1[8:1]/8-5[8:1],5<8[8:1]/1>4[8:1],
{16},,,,,,,,4,8,4,8,{8}4h[8:3],8,
7,6,5h[8:3],4,3,2,{4}1h[4:1]/8h[4:1],
{32},2,3,4,5,6,7,8,{8}5b/1-5[8:1],5-1[8:1],{2}1,
{8}1/5,6/2,3/7,4/8,{16}1/5,8/4,7/3,6/2,{8}1-4[8:1]/5-8[8:1],8/4,
{1}5b/1b,
{4},,,,4h[8:7],
6h[4:1],,3h[4:1],
5h[4:1],6h[4:1],7h[4:1],8h[4:1],
1h[4:1],2h[4:1],3h[4:1],4h[4:5],
5,3,5,{8}3,2,
{4}1-5[8:1],1b,3h[2:1],{8}2,1,
1h[4:1],{16}8,7,{8}6,6h[8:5],,7,8,1,
1h[16:5],{16}2,3,{8}4,4h[8:5],{4}5b,{8}6,7,
8h[4:1],{16}1,2,{8}3,3h[8:3],,4,{4}4-1[8:1],
3-8[8:1],{8}3,1b,,5,6,7,
{16}4/8-3[8:1],3,{8}2,,,4-8[8:1],3,2,1,
{16}1,8,{8}7<4[8:1],6,2<7[8:1],,3,4,5,
{16}8-4[8:1],1,{8}2,{4}4<7[8:1],{8}2,2-5[8:1],,7-4[8:1],
,6-1[8:1],,7b,,,,8-4[8:7],
,,,,,2-6[4:3],,,,,{4}4-7[8:1],
{8},,,1-4[8:1],
,8-5[8:1],,1-6[8:1],,8-3[8:1],,1-4[8:1],
,8-5[8:1],,1b,,1-6[8:1],8,1,
2,,,8-3[8:1],1,8,{4}7,
{8}1-6[8:1],8-3[8:1],1,8,,5-8[8:1],,4-1[8:1],
,5-2[8:1],,4-7[8:1],,5-8[8:1],,4-1[8:1],
,5-1[2:1],,5h[8:5],{4},,{16},,{32}1b,
2b,{16}3b,{32}1b,2b,{16}3b,{32}1b,2b,{16}3b,,,,,,,,,{4}5<8[8:1],
{8}4,3,2,1/8<5[8:1],,,{4}3>8[8:1],
{8}4,5,6,7/8>3[8:1],,,{4}6<1[8:1],
{8}5,4,3,2/1<6[8:1],,,{4}2-7[8:1],
2-6[8:1]/8-5[8:1],2/8-4[8:1],8/4-8[8:1],
{8}8,1,{24},,,4/6,,5,,5,,{8}4/6,{24},,,5/3,,4,
,4,,{8}3/5,{24},,,4/2,,3,,4,,5/3,,4,,5,,6/4,,5,
,6,,{8}7/5,,1h[4:1],,2h[4:1],,3,
,3/4,{16},4/5,,,{8}5/6,2/1,{16},1/8,,,{8}7/8,
,,2-6[8:1],{2}2,
{4}6<1[8:1],{8}5,4,3,2/1<6[8:1],,,{4}3>8[8:1],
{8}4,5,6,7/8>3[8:1],,,{4}7-2[8:1],
7-3[8:1]/1-4[8:1],7/1-5[8:1],1/5-1[8:1],
{8}1b,8b,{24},,,5/3,,4,,4,,{8}5b/3b,{24},,,4/6,,5,
,5,,{8}4b/6b,{24},,,5/7,,6,,5,,6b/4b,,5,,4,,5b/3b,,4,
,3,,{8}4b/2b,,8h[4:1],,7h[4:1],,6,
,6b/7b,{16},5b/4b,,,{8}3b/2b,7b/8b,{16},2b/1b,,,{8}5b/4b,
6h[16:3],{16},7h[16:3],,,{8}8,3h[16:3],{16},2h[16:3],{32},,,,1h[8:3],
,,,,,,,,,,,,2,3,4,5,6,7,8,1,2,3,4,5,6,7,8,1,2,3,4,
5,6,7,8,1,2,3,4,5,6,7,8,1,2,3,4,5,6,7,8,{8}1h[8:3],{16}2,3,{8}4,
,5,,6,7,{32}8b,7,6,5,4,3,2,1,8/4b,5,6,7,
8,1,2,3,{8}4h[8:1],{4}7-3[1:1],,,,,,2-6[1:1],
E
