&title=終の舞姫
&artist=Se-U-Ra
&first=0.558
&des=水户ななみ
&des_5=ナナミ
&des_6=水户ななみ
&lv_5=14+
&lv_6=15
&inote_5=(202)
{6}4,4,5,4,5,5h[6:2],,4,4,5,
{12}4,5,3h[6:2],,,,
{6}5,5,4,5,6,4,3,
{12}5,4,6,,4,5,3,5,4h[6:2],,6,,6,,6h[6:2],,,,5,,4h[6:2],,6,,6,,6h[6:2],,,,5,,4,,3,,2,,1,,1,2,3,,1,,1,2,3,,4,,3h[16:1]/5h[16:1],,2h[16:1]/6h[16:1],,1b>4[12:1]/7b<4[12:1],,,,,,
{12}5,4,3,5,6h[6:1],,2,,1,1,,8>3[8:1],,5,6,7,8h[6:1],,4<7[8:1],,2,2,,1,,1,2,8,7,2,3,4,2,2,5,4,6,6,2,3,7,6,
{8}3h[8:2]/5h[8:2],,,
{24}52,,,,,,,5h[8:2]/1h[8:1],,,,,,,,
{24}15,,,,26,,,,37,,,,48,,,,15,,,,26,,,,3b/7h[2:3],,,,,,,,,,,,,,,,,,,,,,,,
{12}8,1,2,3,4,5,6,8,1,2,3,4,
{12}5,5,6,6h[12:2],,,4,4,3,3h[12:2],,,5,4,6,4,5,3,5>2[8:1],5,4,6,,,
{12}4,4,3,3h[12:2],,,5,5,6,6h[12:2],,,4,5,3,5,4,6,4<7[8:1],4,5,3,,,
{12}2,2,4,5h[6:1],,,7,7,5,4h[6:1],,,2,2,5,7,7,4,1<6[8:1],8,2,2,,,
{12}7,7,5,4h[6:1],,,2,2,4,5h[6:1],,,6,5,7,3,4,2,5,4,6,4,5,3,
{12}6,8,7,7h[6:1],,,8,6,7,7h[6:1],,,8,6,7,1,3,2,7,5,6,2,,,
{12}3,1,2,2h[6:1],,,1,3,2,2h[6:1],,,1,3,2,8,6,7,2,4,3,7h[8:2],,,
{4}8qq3[8:13],1,2,3,4,5,6-4[8:1],6,
{12}1,1,1,1,1,1,8,8,8,8,8,8,1,1,1,8,8,8,1,1,8,1,1,8,
{8}1b-6[8:1],2,2,3-8[8:1],2,2,1h[8:2],,
{8}8-3[8:1],7,7,6-1[8:1],7,7,8h[8:2],,
{12}1q5[8:1],,1,7p3[8:1],,7,2-6[8:1],,2,1-5[8:1],,1,8-4[8:1],,8,7-3[8:1],,7,1-6[8:1]*-4[8:1],,,1,,,
{12}8p4[8:1],,8,2q6[8:1],,2,7p3[8:1],,7,8-4[8:1],,8,1-5[8:1],,1,2q6[8:1],,2,8w4[8:1],,,8,,,
{12}2-5[8:1],,2,6-1[8:1],,6,4,,4h[12:3],,,,
{12}7-4[8:1],,7,3v8[8:1],,3,5<8[8:1],,5,1,,,2,,2,3,,3,4,,4,5,,5,6-1[8:1],,,
{8}8,7-4[8:1],,2,3b,,
{12}1h[12:2],,7-4[8:1],8-3[8:1],,7,8,,1-6[8:1],2-5[8:1],,1,2,,7,7,,6,5-1[8:1],,4,5,,,
{12}8h[12:2],,2-5[8:1],1-6[8:1],,2,1,,4,4h[8:2],,,7,7,5,6,6,4,5,5,3,4,5,6,7b,,,
{12}1,1,1,1,1,1,1h[4:5],,,5,,,,,3,,,,7,,,
{12}8,8,8,8,8,8,17,8,8,8,8,8,
{24}1,,1,,1,2,3,,1,,1,,1,,2,,3,,45,,6,,7,,
{12}82,3,4,6,5,4,3,4,5,7,6,5,3,2,1,7,8,1,2,1,8,6,7,8,
{12}4h[12:5],,2,2,,,8h[12:5],,2,2,,,1,7,2,8,2,7,1,8,1,27,,,
{12}3,4,2,8,1,7,3,4,2,8,1,7,4,6,5,8,1,7,4,6,5,8,1,7,
{12}3,4,2,2h[6:1],,,2,1,3,3h[6:1],,,
{12}4,4,8,3,3,7,2,2,6,1,1,5,8,8,4,7,7,3,6,6,2,5,5,1,1V75[4:2]*<1[4:4],,,,,,,,,,,,
{4}5h[96:1],6h[96:1],7h[96:1],8w4[8:1],8b<8[1:2],,,,,,,,8<8[1:2],,,,,,,,8>8[1:2]*>8[1:2],,,,,,,,8>8[4:6],,,,,,,,
{4}1h[4:7],,,,,,,,1h[4:7],,,,8z4[8:4],,,,
{12}3,5,4,4h[6:1],,,3,5,4,4h[6:1],,,3,5,6,4,6,3,5,4,6,4-8[8:1],5,3,4b,2,2,7,1,1,
{24}8,7,6,,2,,7,6,5,,1,,
{12}1-5[8:1],7,7,1,,8,1-5[8:1],3,3,1,,2,2,4,3,8,5,6,3,4,1,7,8,5,
{12}1,6,3,4h[12:2],,1,6,5,8,3h[12:2],,,
{24}7,,5,,8,1,8,,2,,1,8,1,,6,,5,,47,,,,,,
{12}38,4,5,16,5,4,38,4,5,16,5,4,38,7,6,1,8,7,2,1,8,
{24}2,1,8,7,6,5,
{12}4,3,2,1-5[12:1]*-5[12:1]/5,,1,6,7,8,1-5[12:1]*-5[12:1],,1,
{12}4,3,2,16,7,8,15,6,7,84,5,6,78,1,2,38,7,6,45,3,2,15,6,7,
{12}8h[12:5]/4,4,3,3,,,2h[12:5]/6,6,7,7,,,48,48,37,37,,,15,15,26,26,,,
{12}48,37,26,1h[12:2]/5h[12:2],,,15,26,37,4h[12:2]/8h[12:2],,,
{12}7,1,5,2,8,4,7,5,1,3h[8:2],,,
{12}7,8,1,2,1,8,7,8,1,2,1,8,7,6,5,41,2,3,48,7,6,52,3,4,
{12}56,56,56,56,,,34,34,34,34,,,
{12}7,8,6,2,1,3,6,5,7,3,4,2,78,6,5,
{24}3,4,3,,4,,5,,6,,7,,1b/8b,,,,,,
{24}3,4,5,,1,,3,4,5,,8,,
{12}3,7,2,8,4,6,1,1,1,1,1,1,
{24}1,2,3,4,5,6,7,8,1,2,3b/7b,,
{1},,
{6}4,5,3,3h[6:2],,6,4,5,3,3h[6:2],,6,4,5,6,5,4,3,4,5,
{12}6,5,6,,8,1,2,3,4>5[4:11],,,,,,,,,,,,4h[4:8],
&inote_6=(202)
{6}4,3,3,4,3,2,4,3,3,4,{12}2,3,{6}2,4,3,2,4,2,1,2,3,{12}4,3,{6}4,{12}1,2,3,4,5h[2:1]/6,,8,,8,,8^2[8:1],,,,,,5h[2:1]/6,,8,,8,,8^2[8:1],,,,,,5h[2:1]/6,,8,,7,,8,,1,2,1,,8,,2,3,2,,3,,4,,5,,
{8}2b-8[8:1]/7b-1[8:1],,27,,{12}3,5,4,6,5,,3,4,3,4h[3:1],,5,,2h[3:1],3,4,5,,6,5,6,5,5h[4:1],4,,7h[3:1],6,5,4,,1,2,3,2,3,4,3,4,5,4,5,6,{8}5b-8[16:1]/7b-4[16:1],,,{8}1v6[16:1]/3,{6},4b,,46,24,28,35,13,1pp4[2:1]/7qq4[2:1],,,,,,,4w8[4:1],,,,{12},35,,,
{12}1-5[8:1],8,2,1,,,1-5[8:1],8,2,1,,,3,4,2,7,8,6,2-6[8:1],2,8,8h[12:2],,,
{12}8-4[8:1],1,7,8,,,8-4[8:1],1,7,8,,,6,5,7,2,1,3,7-3[8:1],7,1,1h[12:2],,,
{12}14,5,6,1/7h[12:2],,,17,6,5,1/4h[12:2],,,51,2,3,45,6,7,8,4,7h[12:3],3,,,
{12}14,5,6,1/7h[12:2],,,17,6,5,1/4h[12:2],,,1,5,3,8,4,6,2,5,3,7,4,6,
{12}2-6[8:1],1,1,1h[6:1],,,5-1[8:1],8,8,8h[6:1],,,3,3,4,5,5,4,3,4-1[8:1],5,6,,,7-3[8:1],8,8,8h[6:1],,,4-8[8:1],1,1,1h[6:1],,,6,6,5,4,4,5,6,5-8[8:1],4,3,,,
{12}12,2,2,2h[6:1]/3,,,87,7,7,7h[6:1]/6,,,3,3,2,4,4,5,2,1h[6:1],8,7h[6:1],,,45,4,4,43,4,4,46,4,4,24,4,4,{24}46,,6,5,6,,6,,6,5,6,,6,,6,5,6,,6,,6,5,6,,
{8}1h[8:2],7-3[8:1],7,1<5[16:3],2,2,2,,1h[8:2],7-3[8:1],7,1,2-6[8:1],2,2b,,
{12}7-5[8:1],,7,8-4[8:1],,8,1-5[8:1],,1,2-4[8:1],,2,7-3[8:1],,7,7/8-4[8:1],,8,8/1-5[8:1],,1,1/2-6[8:1],,2,
{12}2/7<5[8:1],,7,8p4[8:1],,8,1q5[8:1],,1,2>4[8:1],,2,7-3[8:1],,7,7/8p4[8:1],,8,8/1q5[8:1],,1,1/2-6[8:1],,2,
{12}2/7h[8:2],,,,,3b/7b,48,,4h[12:3]/8,,,1,1-5[8:1],,1,2-8[8:1],,2,6-4[8:1],,6,3-6[8:1],,3,
{12}7h[8:2],,,,,5-1[8:1]/7-5[8:1],57,,,,,6,1,3,2,8,6,7,2,4,3,7,5,6,
{12}2-4[12:1],,2,4-6[12:1],,,6-8[12:1],,,8-2[12:1],,,5h[12:5],,,,,4h[3:1],,,,3,,,7-5[12:1],,7,5-3[12:1],,,3-1[12:1],,,1-7[12:1],,,4h[12:5],,,,,5h[3:1],,,,6,,,4,4,3,4,4,5,4,4,2,4,4,6,8,8,7,8,8,1,8,8,6,8,8,2,45,4,4,43,4,4,46,4,4,24,4,4,{24}46,,6,5,6,,6,,6,7,6,,6,,6,5,6,,6,,6,7,6,,
{12}3,4,5,2,3,4,1,2,3,8,1,2,6,5,4,7,6,5,8,7,6,1,8,7,2/6h[12:5],,2,2h[4:2],,,6,,6,6h[12:2],,,
{12}4,3,2,6,5,4,1,8,8,8h[12:2],,,
{12}2,3,4,6,7,8,2,3,4,6,7,8,3,2,1,7,6,5,3,2,1,7,6,5,
{12}1,5,1,1h[12:2],,,5,1,5,5h[12:2],,,2,4,3,8,6,7,1,3,2,7,5,6,3,4,2,7,8,6,2,1,3,6,5,7,1h[4:7],,,,,,,,,,,,
{4}3,4,5,6-1[8:1],6b/1bp4[4:30],
{12}2,8,8,2h[12:2],,,3h[12:2],,,3>6[8:3],,,,,,,,,,,,7h[12:2],,,1,7,7,1h[12:2],,,2h[12:2],,,3h[12:2],,,2h[12:2],,,1-6[8:1],,,1,,,8h[12:2],,,
{12}2,8,8,2h[12:2],,,3h[12:2],,,3>6[8:3],,,,,,,,,,,,7h[12:2],,,1,7,7,1h[12:2],,,2h[12:2],,,3h[12:2],,,2h[12:2],,,1-6[8:1],,,1,,,
{8}8b,,,,,,,,,,,,,,,,4b,,,,,,,,,,,,,,,,
{12}6-4[12:1]/7h[6:1],8,8,8,,,3-5[12:1]/2h[6:1],1,1,1,,,
{24}2,,3,,4,,8,,7,4,6,,1,,2,5,3,,7,,6,,5,,
2b,,3,,4,,58,,7,4,6,,51,,2,5,3,,47,,6,,5,,
{12}3/8-4[12:1],27,16,85,,,3/8-4[12:1],27,16,85,,,47,36,25,25,36,47,18,27,36,36,27,18,2/5-1[12:1],36,47,58,,,2/5-1[12:1],36,47,58,,,18,27,36,27,36,45,36,1-4[12:1]/8-5[12:1],18,18,,,
{12}2,2,34,6,6,45,1,1,23,7,7,56,{24}2,,3,4,3,,6,,5,4,5,,1,,2,3,2,,7,,6,5,6,,{12}45,3,3,2h[6:1]/3,,,18,7,7,7/6h[6:1],,,
{24}2,,3,,4,,8,,7,4,6,,1,,2,5,3,,7,,6,,5,,
2b,,3,,4,,58,,7,4,6,,51,,2,5,3,,47,,6,,5,,
{12}15,16,17,1/8h[12:2],,,48,38,28,1h[12:2]/8,,,1-5[8:1]/5,16,17,1b/8,,,8-4[8:1]/4,38,28,1/8b,,,
{12}1>3[8:1]/5,15,1,1b/7,,,8<6[8:1]/4,48,8,2/8b,,,1,1,5,1,1,7,18,27,36,1b/8b,,,
{12}15,6,7,48,3,2,15,6,7,48,3,2,1b/7,6,5,1b/3,4,5,1b/7,6,5,1b/3,4,5,
{12}76,56,45,3h[12:2]/4b,,,24,35,46,5h[12:2]/7b,,,
{24}8b,,3,4,5,,6b,,2,3,4,,8b,7,6,,4,,7b,6,5,,2,,
{24}1/5b,6,71,,1,,1/6b,7,81,,1,,1-5[16:1]*-6[16:1],,7,,3,,1b,,,,,,
{12}34,25,16,8,{24}8,7,8,,{12}18,27,36,5,{24}5,4,5,,{12}56,47,38,{24}1,,1,2,1,,8,,8,7,8,,
{48}81,2,3,4,5,6,7b,8,15,26,37,48,
{1}1h[2:3]/5b,,
{6}4,5,3,3h[6:2],,6,4,5,3,3h[6:2],,6,4,5,6,5,4,3,4,5,
{12}6,5,6,,8,1,2,3,4>5[4:11]*>5[4:11],,,,,,,,,,,,4h[4:8],
