&title=好的愤怒
&artist=EBIMAYO
&first=-0.1800002
&lv_5=14.6
&des_5=snd
&inote_5=
(222){4},{8},4-1[8:1]/5-8[8:1],,4bx/5bx,{24},,,2,,7,
,3,,6,,4,,5,,{8}4b>1[8:1],5<8[8:1],4,{4}5bx,
{8}3,3,,4-1[8:1]/5-8[8:1],,4bx/5bx,{24},,,2,,7,
,3,,6,,4,,5,,{8}4b>1[8:1],,4,{4}7-3[8:1],
{8}1/7b,,,8z4[8:1]/1z5[8:1],,1b/8b,{24},,,3,,6,
,2,,7,,1,,8,,{8}1b>4[8:1],8<5[8:1],1,{4}8b,
{8}3,3,3,8h[4:1]/3-6[8:1],,3,,7h[4:1]/2-5[8:1],
,2,{16},,1x/6-2[8:1],2x,3x,4x,{8}5x,,4,
4,4,4,{16}4xv7[8:1]/8xv3[8:1],3x/7x,2x/6x,1x/5x,{8}4bx/8bx,{24},,,2x,,6x,
,2,,5,,2,,4,,{8}2xV83[4:1],{4}4x-8[8:1],4bx,
{8}4x,4,4x,4bv7[8:1]*v1[8:1],,4,{24},,,2,,6,
,2,,6,,3,,5,,{8}4b-8[8:1],5,4,{4}7b-4[8:1],
{8}7b/2,2,2,7v4[8:1]/2v4[8:1],,2b/7b,{24},,,3,,5,
,2,,6,,1,,7,,{8}8-4[8:1],7-5[8:1],8b,{4}7b,
{8}2,2,6,6h[8:1]/1-4[8:1],,1/6x,,7h[8:1]/1>4[8:1],
,1/7x,,1-5[8:1],8-6[8:1],1-3[8:1],8-4[8:1],1z5b[4:1],
8,1,,8x-6[8:1],,4x/8x-2[8:1],,4x/8x-6[8:1],
,4x/8x-2[8:1],,4x/8x-5[8:1],4x-1[8:1],8x,4x,6x,
,5x,5x,5x/1x-3[8:1],,5x/1x-7[8:1],,5x/1x-3[8:1],
,5x/1x-7[8:1],,1x/5x-8[8:1],,5x,{4}1x-4[8:1],
{8}1x,7x,6,5/2,5,2,5,{16}2,4,
2,4,{8}2,2,2,2,2,2,{16}2,5,
2,5,2,5,2,5,{24}2b,3,4,5,6,7,8,1,2,3,4,5,{96}8b,,,7,,,{32}6,5,
4,3,2,1,8,7,6,5,4,3,2,1,{8}8>6[8:5]/4v6[8:5],,,,,,,,2-4v6v1[8:5],
,E8,E7,7bx,
7bx,7bx,7bx,6-3[8:1],,6,{4}2-5[8:1],
{8}2,7,7,7-5v3v8[8:5],,E2,E3,2bx,
2bx,2bx,,3/7,{16}4,6,{8}4,5,4/7,
5,4/6h[8:1],,1-3v5v8[8:5],,E7,E6,6bx,
6bx,6bx,6bx,6xh[4:3],,E2,B2,B3,
E4,C,{16},,3,2,1,8,7,6,5,4,3/6,7,
8,1,2,3,4,5,2/6,3,4,5,6,7,8,1,7/2,6,
5,4,3,2,1,8,{8}7-1v6v4[8:5],,E4,E3,3bx,
3bx,3bx,3bx,3x>8[8:1],,3x,{4}7<4[8:1],
{8}7,3,3,3-5v2v8[8:5],,E7,E8,7bx,
7bx,7bx,7bx,6/1,{16}8,7,{8}8,8,6/1,
5,2/5h[8:1],,6-4v7v1[8:5],,E3,E2,2bx,
2bx,2bx,2bx,2xh[4:3],,E6,B6,B7,
E8,C,{16},,8,7,6,5,4,3,2,1,8/4,7,
6,5,4,3,2,1,8/4,7/3,6/2,5/1,8/4,7/3,{32}B7/B3,B8/B4,B1/B5,E6/E2,{8}Cfh[8:1],
,,,4>2qq8q5[8:5],,E7,E6,6bx,
6bx,6bx,6bx,6x-1[8:1],,6x,{4}2x-5-1[8:3],
{8}7,7,7,8<6qq4q1[8:5],,E3,E2,2bx,
2bx,2bx,,8/3,{16}2,1,{8}2,2,8/3,
7,4/7h[8:1],,4p6<4[8:5],,E5,E6,5bx,
5bx,5bx,5bx,5xh[4:3],,E2,B2,B3,
E4,C,{16},,3,4,5,6,7,8,1,2,3/7,6,
5,4,3,2,1,8,7/3,4,5,6,7,8,1,2,3/7,6,
5,4,3,2,1,8,{8}7h[2:3],,C,,C,
,C,,C,,C,,C,
,6,5,3h[4:5],,5,,5,
,5,,5,,5,,5,
{16}4,5,{8}4,4,3,3,2,2,1,
1,8,8,7,7,6,6,5,
5,4,4,{16}4,5,4,5,4,5,4,5,3,6,
3,6,3,6,3,6,2,7,2,7,2,7,2,7,1,8,
1,8,1,8,1,8,{8}1bx<1-7v2v5-3[8:29],{1},,,{4},,,{8},8h[4:1],
,,1,7h[4:1],
,,2,6h[4:1],,,3,5h[4:1],
,,4,6/3,5,4,3/6,4,
5,6/3,5,5/4h[16:1],4h[16:1],4h[16:1],4h[16:1],5h[16:1],
5h[16:1],5h[16:1],5h[16:1],5bx/4b-1[8:1],,7,,4-8[8:1],
,6,,4-1[8:1],,7,,4-8[8:1],
,6,,5b-8[8:1],,2,,5-1[8:1],
,3,,5-8[8:1],,2,,5-1[8:1],
3,3,3,2/7,,3/5,4,7/2,
,6/4,5,4/6,,7/2,3,4/6,
5,2/5,,5/3,4,4,3/5,4,
4,3/5,4,3/5,3,{16}3,5,2,5,1,5,
8,5,{32}8,1,2,3,{8}4,5x/8-6-2-6[8:5],,4x,4x,3bx,
3bx,3bx,3bx,4bx,,6bx/2x-5-2[8:3],{4}6bx,
{8}6bx,6bx,6bx,1-3-7-3[8:5],,5x,5x,6bx,
6bx,6bx,,4/6,{16}4,5,{8}4,4,4/6,
4,6/4,,7/4>1v4[8:5],,7x,7x,8bx,
7bx,6bx,5bx,5bx,,3bx/5-8-5[8:3],{4}3bx,
{8}3bx,3bx,3bx,3x-8-2-5-3[8:5],,6x,6x,7bx,
7bx,7bx,,2/8,{16}2,1,{8}2,2,2/8,
2,2/Cf,,3/5,3,4/6,4,5/7,
5,6/8,6/8,8/6,8,7/5,7,6/4,
6,5/3,5,{16}3,4,3,4,3,4,3,4,{32}3b,2,1,8,
7,6,5,4,3,2,1,8,7,6,5,4,{8}3q5[2:1]*>5[2:1],,,,,,Cf,
,7b/1,{16}2,5,{8}3,6,{16}4,5,
3v8[8:1],6,{8}2,3/7-4[8:1],6,1-5[8:1],2,1,6,
{24}4,3,2,1,,,7,6,5,4/8,,,{4}8w4[8:1],8x,
{8}2x,1,{4}8x>3[8:1],{8}6,7,{4}8x<5[8:1],
{8}1-5[16:1],1,,7b/4,{16}5,6,{8}5,7,{16}8/5<8[8:1],4,
{8}3x-1-5[4:1],5,3,7x,7x,7,{16}3,4,{8}2,
{16}6,5,{8}7,4,8/B4,8,B3,7/B3,7,
B2,6/C,5x,4/5x,4,5,5,{16}4,5,
3,6,2,7,1,8,{8}1-5[8:1],{16}8,7,{8}1/6h[8:1],{16},,3,4,
5<8[16:1],6,{8}7,2,3>8[8:1],2,7-4[8:1],6,2-4[8:1],
1,8,{24}8,7,6,5,,,{4}5xw1[8:1],5x,
{8}3x,4,{4}5x>2[8:1],{8}7,6,{4}5x<8[8:1],
{8}4x,4,,4b/7-1v6[4:1],,4,3,2-8v3[4:1],
,7,{4}7-4[8:1],7/2-6[8:1],2,
{8}7,7,7,2,2,6,6,3,
3,5,5,4/5,4/5,5/3,5/3,5/2,
5/2,5/1,,1>3[8:1]/5<7[8:1],,1<7[8:1],,1>3[8:1]/5<7[8:1],
,5/1,,4q4[8:3],,4,,,,4/8,
8/4,8<6[8:1]/4>2[8:1],,8>2[8:1],,8<6[8:1]/4>2[8:1],
,4/8,,8-4-6-2-8[8:5],,,,,,,,2,
2,7,7,3,
3,6,6,4,4,5,5,4,
4,5,5,{16}4,5,4,5,4,6,4,7,4,8,
4,8,{32}4,5,6,7,8,1,2,3,{8}4/8-4[8:1],,8<5[8:1],,8>3[8:1],
,8w4[8:1],,8b/Cf/B1f/B7f/B3f/B5f,
E
