&title=ダブステ列島恋物語
&artist=kanone feat. せんざい
&first=1.55
&des=Kurene_Hana
&lv_6=13+
&inote_6=(74)
{4}7>2[8:5]/3h[16:3],3,4,5,
{4}2<7[8:5]/6h[16:3],6,5,4,
{16}7p5[8:5]/2h[16:3],,,7,2,,,,3,,,,4,,,,
{16}2q4[8:5]/7h[16:3],,,2,7,,,,8,7b,,,6,,,,
{16}8q1[4:1]/1h[16:3],,,8,1>8[8:3],,,,4,,,,2,,,,
{16}1p8[4:1]/8h[16:3],,1b,1,8<1[8:3],,,,5,,,,7h[4:1],,,,
{8}1-3[8:1],3-5[8:1],8V64[8:11],6,,,,,
{16}1h[16:3],,,,1,,,,2-8[8:1],,3,3,2,,,,
{16}8-5[4:1]/5h[16:3],,,8,5qq5[4:1],,6,,7,,,6,6V84[4:1],,4,,
{16}6/4v6[8:1],,,2,2,,3,,4/5s1[8:1],,8/1s5[8:1],,,,,,
{16}4h[16:3],,,6,4qq5[8:1]/6,,5pp5[2:1]/3,,4/2h[16:3],,,,{24}1h[24:1],,1h[24:1],{16},,
{16}1-5[8:1],,1,1,1/8-4[8:1],,8,8,81,,1w5[8:1],{32}1,28,{16}37,,,,
{16},,1qq8[8:1]/8pp1[8:1],18,18,,1-5[4:1]8,,,,1h[8:1],,,,1v3[8:1],,
{16}1v7[8:1],,1v4[8:1],,1v6[8:1],,1-5[8:3],,1,,1,,,,,,
{1}8bw4[8:5],
{8}3h[4:1],6h[4:1],,,2h[4:1],7h[4:1],,,
{16}1h[8:1],8h[8:1],,,1h[8:1],8h[8:1],,,2h[8:1],7h[8:1],,,3h[8:1],6h[8:1],,,
{32}4h[16:1],5h[16:1],,,3h[16:1],6h[16:1],,,2h[16:1],7h[16:1],,,1h[16:1],8h[16:1],,,{64}1h[32:1],8h[32:1],,,1h[32:1],8h[32:1],,,1h[32:1],8h[32:1],,,1h[32:1],8h[32:1],,,{16}1b,,,,
{16}1pp5[16:3]/8h[16:1],,8h[8:1]/1,,1qq5[16:3],,,,1p6[16:3]*q4[16:3],,,,1,,,,
{16}3q7[8:1]/7,,3/7q3[8:1],,3>3[4:1]/7,,,,7h[8:1],,,,7h[8:1],,,,
{16}7h[8:1]/3h[8:1],,,,1>4[8:1],2,,2,8<5[8:1],7,,7,4>5[4:1],3,,3,
{16}5p4[8:1]/4,,,,,,,,4,8,4,8,4>4[8:1],8<8[8:1],4,8,
{4}4pp8[16:3],4qq8[16:3],4q7[16:3]*p1[16:3],4,
{8}6V82[8:1]/2,6/2V46[8:1],6p6[4:1]/2,,2h[8:1],,2h[8:1],,
{16}2h[8:1]/6h[8:1],,,,8qq65[8:1],7h[16:1],,7,1pp3[8:1],2h[16:1],,2,5pp4[4:1],6h[16:1],,6,
{16}5/4,,3-8[8:1],,2,,5>6[32:7]*>1[8:1],,6,,5,,,,,,
{16}1h[16:3]/5pp1[4:1],,,5,1q8[4:1],,3,,4h[16:3],,,,4qq4[4:1],,7,,
{16}6h[16:3]/4-8[8:1],,,,6,,5,,4w8[32:3]/8,,8w4[32:3]/4,,,,,,
{16}6h[16:3],,,1,8-2[8:1]/6,,2-6[16:3]*v4[16:3]/4,,8h[16:2],,,,,,,,
{16}3/7h[16:3],,3,2,8-2[16:1]/1h[16:3],,7,6,8/5v3[8:1]*v7[8:1],,{32},,37,46,{16}5,,,,
{16}37,,1,1,1,,8qq7[16:1],8pp1[16:1],8-4[8:1],,8,,,,,,
{16}1-3[16:1],1-7[16:1],1-4[16:1],1-6[16:1],1w5[4:1],,,,,,,,,,,,
{1}3b>3[1:1]/7b<3[2:1],
{8},,8,7,6,5,1,2,
{32}37,48,51,,,,,,,,,,,,,,{128}8,,,,,8,,,,,8,,,,,8,,,,,8,,,,,,,,,,,,,,,,,,,,,1,,,,,1,,,,,1-5[32:1],,,,,1,,,,,1,,,
{128},,1,,,,,,{16},1b,
E
