&title=リリィ
&artist=上田麗奈/石川由依
&first=-1.689999
&lv_5=13.0
&des_5=ゆい
&inote_5=
(103){4},{8},,,,,,3,
3/5,{4}8<4[4:1],{8}2,3h[4:1],,5p1[8:3],
5-8[4:1],,,,,3,2/4,2/4,
{4}5<8[8:1],{8}3,2,7/1,2h[8:3],,4,
{4}5pp1[8:3],{8}3,3,{4}2>5[8:1],{8}1,8,
{4}7>1[8:1],2>4[8:1],6-4q8[4:1],{8}2,2,
{4}1,{12}5/4,{24}4h[8:1],5h[12:1],,,,,,,,,{12}5/6,{24}6h[8:1],5h[12:1],,,,,,,,,{12}2/4,
{24}2h[8:1],4<7[8:1],,,,,2,2/A4f,,,,,,{8}2,
{4}2,{8}6,7,6/B1/E2/B2,{24}5,,3,{8}6/3,7,
{4}4/6h[4:1],{8}3,2,3/E8/B8/A8,{24}4,,7,{8}3/7,2,
{4}3/5-2[8:1],{8}7/5-8[8:1],6,{4}5/1<6[8:1],{8}4/1>4[8:1],2,
{4}1/6h[4:1],{8}5,4/E7,3,7/E3,{4}8p4[8:1]/2q6[8:1],
,2/B7/B6,,7/B2/B3,
,5/4,{16}3,3,4,2,6,6,5,7,
1,5,3,8,{8}7b/3b,3h[8:1]/7h[8:1],{64},D4/D7,A4/A6,D5/D6,{16}A5f,,,{8}2b/6b,6h[8:1]/2h[8:1],
{64},D6/D3,A5/A3,D5/D4,{16}A4f,,,{8}7/1,5/6,2/8,3/4,{4}2v3[8:1]/7v6[8:1],
{12},,,5/3,{24}4,5,,4,{12}3,{24}4,5,,4,{12}3,{24}4,6,,4,
2h[24:5],,,,,3,{12}1,{24}2,8,,1,{12}7,{24}8,6,,7>3[6:1],{4}5q3[8:1],
,2b/7b,{8}2/4,3,5/4,6,
7/5,4,{4}3qq1>5[2:1]`7qq5<1[2:1]*qq5<1[2:1],,,,7h[16:3]/2h[16:3],
{16}2/7,6/3,{8}4b/5b,,,1-6[8:1],
6<1[8:1],1b>4[8:1],5,6,7h[4:1],,6>4[8:1],
6,3,3>8[8:1],7pp3[8:3],6,5,,5pp7[8:1],
{2}5qq3[8:1],{12}5/3,{24}3,4>1[8:1],,,{8}5,4/6,
{12}6,{24}6,5<8[8:1],,,{8}4,5/3,{12}2,{24}2,3,,3,{12}4,{24}4,5,3,6,
4,5,4,6,5,7,{8}5b,7/5>7[4:1],6/4,5/3,{24},,,,,1/2,
{12}1/2,{24}8/7,7/8v3[8:1],,,{8}7,6p2>5[4:1],7,1bxh[4:1],,,1>4[8:1],
1p4[8:1],{24},,,,,,{12}2-5[8:1],{24}2,6-1[8:1],,,{8}2x,6x,
{12}4-7[8:1],{24}4,8-3[8:1],,,{8}4x,8x,{12}5x,{24}5x,1x,,1x,4,8,3,7,2,6,
{4}1-3[8:1],{8}1/7-3[8:1],8,7/4>1[8:1],5,4/6<1b[8:1],7,
{4}6b/5bv8[8:1],{8}5/2q6[8:1],1,2/7,8>3b[8:1],7<4b[8:1],8bx,
{4}7bx,{8}1-6[8:1],2,1/3-8[8:1],4,{4}3/5pp5<8[2:1]*qq5>2[2:1],
{12}B5f/E6/B6/B4/E5/A5,,,,,,,E2/B2,{24},E6/B6,,,,{8}3,
3,3,3p7[8:1],4,3/6v1[8:1],5,6/4>2[8:1],5,
{4}4/8h[4:1],{8}1-6[8:1],8-4[8:1],1pp5[4:1],8,{4}1b,
{8}8,7,{4}6-4-7[4:1],{8}3,2,{4}1-5[8:1],
8p4[8:1]*<4[8:1],8q4[8:1]*>4[8:1],8,{8}7-1[8:1],2-4[8:1],
7,2,{32}7,6,5,4,3,2,1,8,7/2,3,4,5,6,7,8,1,{8}6b/2b,6b/2b,
{16},,1q5[16:1]/8-5[16:1],8/1,
E
