&title=Mirage Night (feat. Yurisa)
&artist=NieN
&first=0.1
&des_5=ナツナツフユフユ
&lv_5=13
&inote_5=(144)
{1},
{8}35,4,5,6h[8:11],,,B7,E7,,,B5,E6,,,,,
{8}17,8,1,2h[8:11],,,E3,B3,,,E2,B1,,,,,
{8}3,4,5,6h[8:11],,,5-7[8:1],5,,,7-5[8:1],7,,,
{8}4,3,2h[4:3],,,7h[8:3],,,,,
{8}B2,B3,B4,B7,B6,B5,C,,
{8}68,5,4,1/3h[8:11],,,B4,E4,,,B2,E3,,,,,
{8}24,1,8,5/7h[8:11],,,E8,B8,,,E7,B6,,,,,
{8}6,5,4,3h[8:11],,,4-2[8:1],4,,,2-4[8:1],2,,,
{8}5,6,7h[4:3],,,5h[8:3],,,,,
{8}E8,E7,E6,E2,E3,E4,C,,
{64}4x,,,,,,,,,,,,,,,,3x,,,,,,,,,,,,,,,2x^5[4:1],,,,,,,,,,,,,,,,,
{8}8,8h[4:1],,5,7,5,,6,6<5[2:1],,3h[8:3],,,,,,
{8}4,5,,6-4[8:1],,3-7[8:1],,1,1,,
{8}28,,3^5[8:1],3,,,7p3[8:1],7,,,2,2h[4:1],,8,8h[4:1],,
{8}1-5[8:1],,1,7h[4:1],,,7,5<1[4:1],,1>5[4:1],,6,,B6/E6,B6/E6,,
{4}5x,6x,7x^4[4:1],
{8}1,1h[4:1],,,3,3h[4:1],,4,4h[4:1],,
{8}D7,D6,D4,D3,,D5,,
{8}2-8[8:1],2,,7-3[8:1],7,,4>5[2:1],,4,7h[8:3],,,,,,
{8}6^4[8:1],6,,,2q6[8:1],2,,8,8h[4:1],,
{8}D3,D2,D8,D7,,E5,,3^8[8:1],3,,6^1[8:1],6,,B2/E2,B2/E2,,
{8}3b/6b,,5,4,36,4,7,5>8[4:1],,8v3[8:1],,6,,
{16}7x,2x,8x,1,8,1,
{8}8,,4,5,36,5,2,34,,78,,1s5[4:1]/2,,,,,
{8}4z8[4:1],,6,6h[4:1],,,,1,1h[8:3],,8,8,,
{16}2x,5x,3x,4,3,5,
{1}4h[2:1],
{8}7p3[8:1],,1q5[8:1],1,,4w8[8:1]b,,4,,,
{8}5,5,2^7[8:1],7pp2[4:1],2,4,,5^8[8:1],,5,,
{16}2x,7x,1x,8,1,8,
{8}1,,5,4,63,4,7,65,4,5,36,2,8,17,5,3,1qq5[2:1]/2qq5[2:1],,,,,,,,
{8}D2,D3,D5,D6,D4,
{16}6x,5x,6x,,47,,
{4}4V68[4:1]/7,8V24[4:1],5,
{8}6,7,8,
{16}4,5,4,6,5,7,4,,1x/8x,,1xv3[8:1]*q5[8:1]/8x,,,,
{8}1b^6[8:1],,1,3h[4:1],,4,5,4h[8:1]/6h[8:1],,5^3[8:1]/7^5[8:1],,57,,2/4h[8:1],1,,
{8}78,6,1,2h[8:1]/8h[8:1],,28,1,1h[2:1],
{8}E3,E4,E5,E6,,2x/D7/E7,2x/D7/E7,,
{8}34,,6-2[8:1],6,,3,3,{4}12,38,47,{8}56,4h[4:1]/5<1[4:1],,
{8}5,,3,3h[4:1],,1,8,7,6,
{16}5,4,5,3,4,2,5,,1x/8x,,8xv6[8:1]*p4[8:1]/1x,,,,
{8}8b^3[8:1],,8,6h[4:1],,5,4,5h[8:1]/3h[8:1],,4^6[8:1]/2^4[8:1],,42,,7/5h[8:1],8,,
{8}21,3,8,7h[8:1]/1h[8:1],,71,8,8h[2:1],
{8}E7,E6,E5,E4,E3h[2:1],7,6,5,
{1}4bpp4[2:1]*qq4[2:1],
{8}D8,D7,D5,D4,,D6,3,4,2/5h[8:1],,5,3/5h[8:3],,,
{8}B5,C,,{16}D1/D2,A2/A8,D3/D8,A3/A7,D4/D7,A4/A6,D5/D6,,1bx/C,,1bx/C,,,,
{8}4/6b^4[8:1],4<8[4:1],36,2h[8:11],,,1-3[8:1],1,,,3-1[8:1],3,,,1,7,
{8}5/3b^5[8:1],5>1[4:1],63,7h[8:11],,,8-6[8:1],8,,,6-8[8:1],6,,,8,1,
{8}2,34,5,6h[8:11],,,E3,B3,,,E2,B1,,,
{8}4,3,2h[4:3],,,4h[8:3],,,,,
{8}E2,E3,E4,E8,E7,E6,C,,
{8}2b-8[8:1]/8,8V25[4:1],2/7,6h[8:11],,,5-7[8:1],5,,,7-5[8:1],7,,,5,3,
{8}7b-1[8:1]/1,1V74[4:1],7/2,3h[8:11],,,4-2[8:1],4,,,2-4[8:1],2,,,4,5,
{8}6,78,1,2h[8:11],,,E7,B7,,,E6,B5,,,
{8}8,7,6h[4:3],,,3h[8:3],,,,,
{8}B7,B6,B5,B2,B3,B4,C,,
{8}36,4,5,6,,,7,8,,,2,1,,,E7h[4:3],E3h[8:5],,,,,,,,,,,
{1},,
E
