&title=いますぐ輪廻
&artist=なきそ; 初音ミク
&first=0
&des=KoYi. Strive Against Bottle
&clock_count=4
&lv_5=13+
&des_5=KoYi. Strive Against Bottle
&inote_5=(145){1},
{4},,,45,
{16}3,5,3,5,3,,2h[4:1],,,,B8,,B7,,,,6,4,6,4,6,,7h[4:1],,,,B3,,B2,,,,
3,4,3,,2,,6,5,,7h[16:3],,,3,,2,,1,4,2,5,3,6,4-7[8:1],,4x-1[8:1],,,,,,,,
6,4,6,4,6,,7h[4:1],,,,B1,,B2,,,,3,5,3,5,3,,2h[4:1],,,,B6,,B7,,2,4,
3h[4:1],,,,8,,7,5,6h[4:1],,,,C,,,,
4b/5b,,2,3,46,,8,,34,,5,6,73,,1,,54,,7,6,53,,1,,65,,4,3,2h[4:1]/6,,,,
8,,7,6,53,,1,,65,,4,3,26,,8,,45,,2,3,46,,8,,34,,8,,8h[4:1],,,,
4b,,2,3,4-1[8:1]/6,,8,,84,,7,6,53,,1,,54,,7,6,5-8[8:1]/3,,1,,15,,2,3,4h[4:1]/6,,,,
8,,7,6,5<8[8:1]/3,,1,,15,,2,3,46,,8,,45,,2,3,4>1[8:1]/6,,8,,84,,7,,7,,6-1[8:1],5,
6,,,,4,,3,4,2,,7,8,6,,3,4,2,,7,8h[8:1],,6h[8:1],,4h[16:5],,,,,5,,,,
{8}36,2,14,8,27,6,58,4,36,2,1>7[4:1]/4,8,7b<1[4:1],,1b,,
{16}8,,7,7,,26,,3h[16:5]/4,,,E8,,B7,,,,8,,16,,3,4,2,5,,7/1h[16:3],,,6,6,,53,
,,,,8h[16:3],,,5h[16:3],,,7,,46,,46,,3,5,3,5,3,,2,2h[16:3],,,8,,7,,6,,
25,,3,4-8[8:1],2,5,,24,,,16,,3,4,,2,5,,5,,47,,6,5,,7,4,,4,,8,,
74,,6,5-1[8:1],7,4,,75,,,83,,6,5,,7,4,,4,,52,,3,4,,2,5,,5,,1,,
25,,3,4-8[8:1],2,5,,24,,,1,,2,,3,,74,,6,5-1[8:1],7,4,,75,,,8,,7,,6,,
2-6[8:1]/5h[4:1],,,,,,,,7-3[8:1]/4h[4:1],,,,,,1h[2:1],,,,8,,7,,6,,1v4[8:1]/5v8[8:1],,,,15,,,,
3b,7,2,6,3h[4:1],,8,,B6/E6,,8,,53,,8,,6,2,7,3,6h[4:1],,1,,B3/E4,,1,,46,,1,,
6,6,4h[8:1],,7,,1,1,,5/3h[16:3],,,7,,7,,1,,6,5,7,4,6,5h[16:3],,,8b,,8b,,,,
6,2,7,3,6h[4:1],,1,,B3/E4,,1,,46,,1,,3,7,2,6,3h[4:1],,8,,B6/E6,,8,,53,,7,6,
54,,3,4,2,,7,8,6-2[8:1],,,,6,,,,
{16}14,,3,3,27,,3,5,4>1[16:2],,,,,,7,7,E1/B1,,6,6,B2/E3,,5,4,6-8[8:1],,5,,6/3-1[8:1],,4,,3/8q4[6:1],,,,7qq6[6:1],,,,,,2,,37,,4,,51,,6,,37,,8,,15,,2,,37,,4,,5bqq5[4:1]*pp5b[4:1],,,,5,,,,,,3x,,2h,,1,,2,2,4,4,3h[4:1],,,,
{16}7b-4[8:1],,8x,1,7,,2,,5p1[6:1],3,6,6,5,,7,,8b,,B6/E6,,2,3,4/8,,6/1>4[8:1],,8,,B5/E6/1,E7,E8,,
{16}2b-5[8:1],,1x,8,2,,7,,4q8[6:1],6,3,3,4,,2,,1b,,B3/E4,,7,6,5/1,,3/8<5[8:1],,1,,B4/E5/8,,1,,
{16}3bv8[8:1],,2x,5,3,,7,,6pp7[6:1],4,5,4,6,,2,,3b,,B1/E2,,7,6,5/3,,1/8<5[8:1],,4,,8/2,,3,,
{16}6b<1[8:1],,7x,4,6,,2,,3qq2[6:1],5,4,5,3,,7,,6b,,B8/E8,,2,3,4/6,,8/1>4[8:1],,6b,,6bh[4:1],,,,Cf,,,,,,,,
{16}B3/B4/E4,,,,,,,,B6/B5/E6,,,,,,,,B7/B8/E8,,,,,,,,B2/B1/E2,,,,,,,,E4,,,,,,,,E5,,,,,,,,E6,,,,,,,,
{8}2h[8:1],,3h[8:1],,4h[8:1],,5h[8:1],,6h[8:1],,7h[8:1],,2h[8:1],,6h[8:1],
{16}3,4,2h[4:1],,,,,,7,8,6h[8:1],,
3b,7,2,6,3h[4:1],,8<5[8:1],,B5/B4,,8,,3,,8,,6,2,7,3,6h[4:1],,1,,B3/E4,,1,8,3,6,1>4[8:1],,,,
{32}1/5b,6,7,8,,,,,
{16}
5p1[6:1]/6,,47,,8,7,6,5,2,2,4,4,3h[4:1],,,,5,1,6,2,7,3,8,4,1h[16:4],,3b,,3b,,,,3,5,4,6,5h[8:1],,7b,4h[8:1],,8,3,7,2h[8:1],,6,,1b>4[8:1],,5,6,7/1-5[8:1],,8,7,6-1[8:1]/1x>4[8:1],,,,61,,A4/E4/E5,B4,C,,8x,7x,6xh[8:1],,,,,,
{8}3,51,2,73,4,7-4[8:1],7,8v3[8:1],8,1v4[8:1],1v6[8:1],,,,2,37,4,51,6v4[8:1],6,7-3[8:1],7,8v2[8:1],8,1s5[16:3],1,6,7,8,1-5[8:1]/5x-2[8:1],,15,,4pp8[4:1]/8-3[8:1],,48,,1>3[12:1],,1-5-2b[4:1],6<1[8:1],1,6,,7b-4[8:1]/3qq7[4:1],,3/7>5[4:1],,,,
{16}8x,6x,7xh[4:1],,,,,,2,4,3h[4:1],,,,D2/D7/C/B7/A7/A6/E6/E5/A4/E4/E3/A2/A1/B1,,
