&title=化けの花
&artist=なきそ
&first=0.55
&des=tigus
&lv_6=13.6
&inote_6=(90){4}1hb[8:3],8hb[8:1],
{16}1b/8b,,7,7,3,,3h[8:1],,8,7,6,,3,,3h[8:1],,1,2,3,,7,,7h[8:1],,4-8[12:1],5,4,3,4,5,6,,5b/4b,,3,3,7,,7h[8:1],,4,3,2,,7,,7h[8:1],,5,6,7,,3,,3h[8:1],,8-4[12:1],1,8,7,8,1,2,,
{2}Chf[4:1],
{8}7<4[8:1],8,7qq4[6:1],1,7,1,8-5[8:1],1,8q4[8:1],1,8,1,8<5[8:1],5>2[8:1],8,,7>2[4:1]*pp2[4:1],6,7,,,3h[1:1],,5,6,7,8h[4:1],,,,B8f,8h[12:1],
{16}2h,3h,4h,
{32},5-1[16:1],
{16}6,7,8,2/5,3,4,5,6,{18}3hb[12:1],,,8,{144},,,,{8}5h[8:1],{64}3,D3/D4,A2/A4,D2/D5,A1/A5,D1/D6,,,{16},,,1h[16:1],7h[16:1],4h[16:1],5h[16:1],2h[6:1],,,5>2[16:1],6,7h[16:1],,5-8[16:1],6,7h[16:1],,5-2[12:1],6,7<5-8[8:1],8,5,,,3,2,3,1,,,,
{8}Ch[3:1],,,,,5/7,
{8}6b/8b<4[16:1]b,7/1,2b-4-6[16:1]b/8b,1/3,2bv7[16:1]b/4b,1/3,2b/8b-2-4-6[16:1]b,1,6b/8b,5/7,7b-3[16:1]/6,5b-1[16:1]/6,7b/8,5b/4,{16}2,4,6,8,
{8}5-1-5[8:1]/3,4,5/7-3-7[8:1],6,1/7,8,8p2[16:1]/3,5,3p6[16:1],4,1-4-7[12:1],5,1bw5[16:1]b,6,1b,,4b-8[16:1]b/5b-7[16:1]b,{16}3,3,{8}4b-2[16:1]b/5bv2[16:1]b,{16}6,6,{8}4b-7[16:1]b/5b-3-7[16:1]b,{16}3,3,{8}4bw8[16:1]b/5bw1[16:1]b,{16}6,6,{8}4b/5b,1-5[16:1],7-4-2[8:1],1,7,,2<2[4:1]*>2[4:1],,,,,Ch[6:2],,,,,
{16}6,,6>3[16:1],5,6,7,6,,6,,6>3[16:1],5,6,7,6,,7,,7>2[16:1],8,7,6,7,,7>2[16:1],6,7,8,7,,8/2,,3b,,3<6[16:1],4,3,2,3,,3,,3<6[16:1],4,3,2,3,,2,,2<7[16:1],1,2,3,2,,2<7[16:1],3,2,1,2,,1/7,,Chf[4:1],,,,,,,,
{8}6h[8:1],1>4[16:1],7h[8:1],1pp4[8:1],8h[8:1],,,,
{16}1/8,,3,5,7,1,8,2,{32}6,4,7,1,5,3,6,8,
{32}3,4hx[32:17],5hx[2:1],,,,,,
{16},,,,,B5,B6,,E1,B8,1hx[4:3],,,,,E8,B7,,B5,B6,,B7,E7,,4hx[2:1],,,,5<8-2[4:1],,,,5-3-6[4:1],,,,5,,,,,,7h[8:5],,,,,2-6[8:1],,,,,,,,,C,,,,,,,,
{1}2<7-4>2[1:1]*>4-7>2[1:1],
{8},,,5<8-5[8:1]*>2-5[8:1],E7/E4,5,,,3>6[8:1]*-8v6[8:1],5,3-5-7-4[8:1],2,3>8-4[8:1],6,3,,8-4[12:1]/7,1-5[12:1]/2,7/8,1/2v7[12:1],4/6v3[12:1],2,6,,
{8}6b/8b-4[16:1]b,{16}7,7,{8}2b-6[16:1]b/8b,{16}1,1,{8}2bv5[16:1]b/4b,{16}3,3,{8}2b/8bv3[16:1]b,{16}1,1,{8}6bv1[16:1]b/8b,{16}7,7,{8}7b/6b,{16}5/4,8b,2b,4b,6b,8bh[16:1],,,,,
{16}2-6[16:1],,1,1,8-4[16:1],,3,3,5v3[16:1],,6,6,8v6[16:1],,1,1,4-1[16:1],,5,5,,,,C,
{2},
{32}4b/5b,,4,5,4,5,4,5,4,5,4,,1/2,,4,,4,,4,5,4,5,4,,8/7,,5,,5,,5,4,5,4,5,,
1/2,,4,,4,,4,5,3,4,2,,8/7,,5,,5,,5,4,6,5,7,6x,5x/4x,3x,2x,,1b/8b,,2,7,2,7,2,7,2,1,8,7,6,5,4,3,2b,,6,5,6,7,6h[16:1],,,3,4,3,2,3h[16:1],,,1/2,,6,5,7,4,6,,7/8,,3,4,2,5,3,,6,2,6,3,6,4,6,5,6>6>6[3:1],7,8,1,2,3,4,5,{2}6,C/A5/A1/E1/E2/E5/E6/B2/B3/B4/B6/B7/B8,
E
