&title=FUN
&artist=MORE MORE JUMP!
&first=-0
&lv_5=13
&des=NaTsuYu
&inote_5=(186){4},,,,,,{16}2,,1,,8,,E7/B7/B8,,
{16},,B5/B6/C,,,,E5/A4,,,,7,,1,,B1,,
{16},,B2/B8,,,,B3/B4/B5/B6/B7/E3,,,,2v4[8:1]/6v8[8:1],,,,2bx/6bx,,
{16},,8,,4/7,,3,,2/7,,6,,2/5,,1,,
{16}E1,,E7,,E5,,E3,,7,,8-4[8:1],,1,,8-3[8:1],,
{16},,8-5[8:1],,,,8,,,,6,,5,,4-8[8:1],,
{16},,4>1[8:1]*<7[8:1],,,,4,,,,1-5[8:1],,,,1,,
{16},,1,,5/2,,6,,7/2,,3,,7/4,,8,,
{16},,E5,,E3,,E1,,E7,,4,,3-1-4-7-5-7-4-1-3[8:11],,2,,
{16}1bxh[8:11],,,,,,,,,,,,,,,,
{16},,,,,,,,1-4<6[8:3],,,,1,,7h[8:5],,
{16},,,,6h[4:1],,,,,,5,,4,,3,,
{16}2,,7,6,5,,2-5[8:1],,,,2h[8:5],,,,6h[8:3],,
{16},,,,,,3h[8:3]/7h[8:3],,,,,,,,2h[16:4]/6h[16:4],,
{16},,,3,4,5,2/6,,,,8w4[8:1],,,,8,,
{16},,5,,1/6,,2,,3/6,,7,,3/8,,4,,
{16},,E7,,B7,,B8,,B1,,,,{64}B2,E3,,,,,,,,,,,,,,,
{16}3/4h[4:1],,,,3,,B2,,B8,,,,E5,,,,
{16}5h[4:1]/6,,,,6,,6,,E1,,,,E5,,,,
{16}3/4h[4:1],,,,3,,B2,,B8,,,,E5,,,,
{16}5h[4:1]/6,,,,6,,6,,E1,,,,E5,,,,
{16}3/4h[4:1],,,,3,,B2,,B8,,,,E5,,,,
{16}5h[4:1]/6,,,,6,,6,,E1,,,,E5,,,,
{16}A3/A4,,B5,,B3,,B7,,,,B4,,B6,,B2,,
{64},,,,,,,,A6,E6,E5,,,,,,,,,,,,,,A2,E3,E4,,,,,,,,,,,,,,A7,E7,E6,,,,,,,,,,,,,,A3,E4,E5,,,,,,
{16}7-4[8:1],,,,1/7,,,,1-5[8:1],,8,,1,,7-4[8:1],,
{16}8,,7,,2,,1/5,,,,2-5[8:1],,6-1[8:1],,2,,
{16}6,,,,3/7,,,,4>7[8:5]/8,,,,4/8,,7,,
{16}6,,5,,4,,3,,E4,,E6,,E8,,E2,,
{16}7-4[8:1],,8,,7/1,,,,1-5[8:1],,8,,1,,7-4[8:1],,
{16}8,,7,,2,,1/5,,,,7-4[8:1]/3-8[8:1]C,,7,,3/7,,
{16},,,,2-8[8:1]/6,,,,2/6-4[8:1],,,,2/6,,,,
{16}E2/D2,,,,E8/D8,,,,E6/D6,,,,E4/D4,,,,
{16}1x<6q4[4:3],,,,,,A5,,C,,,,,,,,
{16}8x>3p5[4:3],,,,,,A4,,C,,,,,,,,
{16}1x-6-2-4[4:3],,,,,,A5,,B4,,,,,,,,
{16}8x-3-7-5[4:3],,,,,,A4,,B5,,,,,,,,
{16}4x>1[4:3],,,,8x,,,,7x,,,,6x,,,,
{16}5x<8[4:3],,,,1x,,,,2x,,,,3x,,,,
{16}4x>1[4:3],,,,8x,,,,7x,,,,6x,,,,
{16}5x<8[4:3],,,,1x,,,,2x,,,,3x,4x,5x,6x,
{16}7x,,,,,,5/6,,5/6,,,,,,1/8,,
{16},,3/4,,3/4,,3/4,,2,,1-3[8:1],,8,,1b/8-4[8:1],,
{16},,8b/7-5[8:1],,,,3/7b,,,,5-7[8:1],,6,,4-8[8:1]/5b,,
{16},,3-1[8:1]/4b,,,,7/3b,,,,2v4[8:1]/8v6[8:1],,,,2/8,,
{16},,3<5[8:1],,3,,7>1[8:1],,7,,2>4[8:1],,2,,6<2[8:2],,
{16},,B7,,B5,,B3,,B1/1,,8-6[8:1],,7,,8x/1-5[8:1],,
{16},,1x/2-4[8:1],,,,6/2x,,,,4-2[8:1],,3,,5-1[8:1]/4x,,
{16},,6-8[8:1]/5x,,,,2/6x,,,,7-4[8:1]/1-4[8:1],,,,7/1,,
{16},,6-4[8:1],,6,,2-8[8:1],,2,,7-5[8:1],,7,,3-1-7[8:2],,
{16},,,,,,,,6,,5-7[8:1],,4,,5b/4-8[8:1],,
{16},,4b/3-1[8:1],,,,7/3b,,,,1-3[8:1],,2,,8-4[8:1]/1b,,
{16},,7-5[8:1]/8b,,,,3/7b,,,,6v8[8:1]/4v2[8:1],,,,6/4,,
{16},,7>1[8:1],,7,,3<5[8:1],,3,,6<8[8:1],,6,,2>6[8:2],,
{16},,B3,,B1,,B7,,B5/5,,4-2[8:1],,3,,4x/5-1[8:1],,
{16},,5x/6-8[8:1],,,,2/6x,,,,8-6[8:1],,7,,1-5[8:1]/8x,,
{16},,2-4[8:1]/1x,,,,6/2x,,,,3-8[8:1]/5-8[8:1],,,,3/5,,
{16},,2-8[8:1],,2,,6-4[8:1],,6,,3-1[8:1],,3,,7-5-3[8:2],,
{16},,,,,,,,,,5bxv2b[8:1]*v8b[8:1],,,,5bx,,
{16},,,,A1/A4/A7/B1/B4/B7/Cf,,3-5[8:1],,8,,3,,7-4[8:1],,1,,
{16}7,,2-5[8:1],,1,,2,,,,7-4[8:1],,7,,1-5[8:1],,
{16}1,,8-4[8:1],,8,,2-5[8:1],,2,,6-3[8:1],,6,,8-4[8:1],,
{16}8,,7-3[8:1],,7,,1,,,,4bxv7b[8:1]*v1b[8:1],,,,4bx,,
{16},,,,A8/A5/A2/B8/B5/B2/Cf,,6-4[8:1],,1,,6,,2-5[8:1],,8,,
{16}2,,7-4[8:1],,,,7,,,,2-5[8:1],,2,,8-4[8:1],,
{16}8,,1-5[8:1],,1,,7-4[8:1],,7,,3-6[8:1],,3,,1,,
{16},,E7,,C,,E3,,2,,1,,8,,E5/B3,,
{16},,B5/C,,,,E6/B7,,,,7,,1,,E5/B6,,
{16},,B4/C,,,,E4/B2,,,,1-5[8:1]/8-4[8:1],,,,1/8,,
{16},,4,,8,,3,,7,,2,,6,,1>5[16:6]/5<1[16:6],,
{16},,,,,,,,,,,,,,,,
