&title=孤独月
&artist=ZUN
&first=0
&des=谱面-0号
&lv_6=15+
&inote_6=(150)
{16},,8,7,6,,6,5,4,3,3h[2:1],,,,,,,,,,,6,5,4,,4,3,2,2h[2:1],,,,,,,,,,,1,,,,7,4,,6,,5,1,3,,4,1,2,3,4,5,6,,7/6,,,,,,3/2,,,,,4/5,,,,,8/1,
(320)
{18},,,,,6h[2:1],2,1,8,7,5,4,3,,,2h[2:1],6,7,8,1,3,4,5,,,6h[2:1],2,1,8,7,5,4,3,,,2h[2:1],6,7,8,1,3,4,5,,,6h[2:1],2,1,8,7,5,4,3,,,2h[2:1],6,7,8,1,3,4,5,,,6h[2:1],2,1,8,7,5,4,3,,,,2h[2:1],6,7,8,1,3,4,5,6,,7h[3:1],,,,,,,,,1[3:1]/5[3:1],,,,,,,,,1/4,,,,1/8,,,2,,3,,4,,5,,5h[5:1],,,,,1-4[4:1],,,,,4-7[4:1],,,,,,,,,,,1-6[5:1]/2-5[5:1],,,,,,,,,,,8-6[5:1]/1-5[5:1],,,,,,,,,,,8-4[5:1]/1-3[5:1],,,,,,,,,,,,1>4[8:1]/5,,,,,6,7,8,,8h[4:1],,,,,,,,,,3h[2:1],8,1,2,4,5,6,,,7h[2:1],1,8,6,5,4,,,,3h[2:1],8,1,2,4,5,6,,,7h[2:1],1,8,6,5,4,,,3h[2:1],8,1,2,4,5,6,,,7h[2:1],1,8,6,5,4,,,3h[2:1],1,2,4,5,6,,,,,,,7h[2:1],,3h[2:1],,,,,,,,,,,3>4-2[2:1]/4<3-1[2:1],,,,,,,,,,,,,,,,,,,,,,,,,,,,1,,,,,2,,,,6,,,,1b,,,7b,6b,,,,,8,7,6h[2:1],,1,2,3h[2:1],,,,,,,,,,
(250)
{16}1,2,3,4,5,6,7,8,1,2,3,4,5,6,7,8,1,2,3,4,5,6,7,8,1,2,3,4,5,6,7,8/1,7/2,6/3,5/4,,,
(150)
{16},1,,3,,7,,3,,4,,2b,,,5b,,4b,,,
(200)
{16}8-4[2:1],,,,,,,,,4>2[2:1],
(300),,,,,,,,,,{16}2-6[2:1],,,,,,,,,,,,,,,1,,,2,,,5,,,6,,,3,,4b,,,,,,,6b,,,,,,,2b,,,
{18},,8,,,1,,,7,,,2,,,8,,,1,,,7,,,2,,,5,6,7,8,1,2,3,4,5,6h[2:1],,,,,7b,8b,1b,
(90)
{16},1^3-6[2:1],1,4,3,7,3,4,5,6,8^6-3[5:1]/1,2,3,4,4h[6:1],(150),,1>8[2:1],,,,,,,,,8-4[4:1],,,,,4-1[4:1],8,7,6,6,5,4h[3:1],,,,,,1,1,3,,3/2,1/4,8/5,6/7,(300),7/6,8/5,1/4/,2h[2:1]/3h[2:1],,,,,,,,,,,,,8,1,2,3,4h[2:1],,,,,1,8,7,6,5h[2:1],,,,,,,,(90)1^3-8[3:1],7,6,5,3,4,5,6,(200),,,,,,8,7,6,5h[2:1],,,4,,,3,2,3,4h[2:1],8,7,6b,,,,,,6,5,7b/4b,,3,4,2b/5b,8/1,7/2,6/3,5h[5:1]/4h[5:1]
,,,,6/3,7/2,1h[8:1]/8h[6:1],,,2,3,4h[2:1],7,6,5h[2:1],,,,,,,,7,6,5,4,,3,2,1,8b,8h[2:1],,,,,,,,,,(100)2-7^4-8[2:1],3,4,5,6,7b,,,,,,,,(123)4-8^5-1[2:1],8,,2,,7,,3h[6:1]b,,,,,,,,1/6,5,4,3,2,1,8h[4:1],1,2,3,4,5h[6:1],7,6,4,4h[4:1]b,1b,,6b,,2b,1b-6[5:1],2,3,4,5h[3:1],,,,,,,1h[5:1],,,2h[5:1],,,,3h[2:1]/7-5-1[2:1],,,,,,,,,,,,,,,(135)1,2/6,3,4,5,6,7/3,,,1,,,5,,,3,,,6,,2,,5,,1,2,3h[4:1],8,7,6h[4:1],,,,7b,2b,,(200)1,2,3,4,5,6,7,8,1,2,3,4,5,6,7,8,1,2,3,4,5,6,7,8,1,2,3,4,5,6,7,8h[1:1],,,,,7,,,,,2,,,,,4,,,,,1,
(215)
{18},,1/5,2,3,4,5,6,7,8,1,2,3,4,5,6/2,7,8,1,2,3,4,5,6,7/3,8,1,2,3,4,5,6,7,8/4,1,2,3,4,5,6,7,8,1/5,2,3,4,5,6,7/3,8,1,2,3,4/8,5,6,7,8,1,2,3,4,5,6,7,8/4,,,(150)1,,7,,2,,6,,4,,4,,8,,6,,1,,2,3,4,,,(500)6,,7,,8-4[3:1],,,,,,,,,,,,,3,,2,,1-5[3:1],,,,,,,,,,,,,,,,,,1b,8/2,7/3,6/4,5b,
(215)
{18},,,,,,,,1,2,3,4,5,6,7,8,1/5,2,3,4,5,6,7,8/4,1,2,3,4,5,6,7,8,1,2,3/7,4,5,6,7,8,1,2/6,3,4,5,6,7,8,1,2,3,4/8,5,6,7,8/4,1,2,3/7,4,5,6,7,8,1,2/6,3,4,5,6,7,8/4,
(150)
{16},1,,2,6,5,4,,6,,7,,7,2,1,6,7,8,1,4,(210)1,2,3,4,5,6,7,8,1,2,3,4,5,6,7,8/1,7,6,5,4,3,2,1,8,7,6,5,4,3,2,1,,,
(215)
{18},1,2/6,3,4,5,6,7,8/4,1,2,3,4,5,6,7,8,1,2/6,3,4,5,6,7,8,1/5,2,3,4,5,6,7,8,1/5,2,3,4,5,6,7,8/4,1,2,3,4,5,6/2,7,8,1,2,3/7,4,5,6,7,8/4,
(150)
{16},,1,,5,,3,,7,2,,1,4,5,6,,1,,6,8,7,,(300)1,,1/6,5,4,3b,,,8,,8/4,5,6b,,,,8b,7/1,6/2,5/3,4b,,
(215)
{18},,,,,,,,,1,2,3,4,5,6,7,8,1/5,2,3,4,5,6,7,8,1,2,3/7,4,5,6,7,8/4,1,2,3,4,5,6,7,8,1,2/6,3,4,5,6,7,8,1,2,3,4/8,5,6,7/3,8,1,2,3/7,4,5,6,7,8,1,2,3/7,4,5,6,7,8b,,,
{18},,1,,3,,5,,2,,1,,4,,5,3,7,1,,6,,1,,6,,4,8,,3,,,,,7h[2:1],1,8,6,5,4,,,,3h[4:1],1,2,4,5,6,7h[2:1],1,2,3,4,5,6,,8,1,2,3,4,5,6,7,8,,,
(100)
{14}1,2,4,5,2,1,,4/3,5/6,{16}1,5,3,4,5,6,2,5,8h[3:1],,,,,1b
,,6,5,4,3b,,3,4,5,6b,1h[5:1],,,2h[5:1],,,3h[6:1],,4h[7:1],,5h[8:1],11,,(210)6b,,7b,8b,1^4[6:1],1-4[6:1],,,,,,,,,,,,8h[5:1],,,5,5h[2:1],,,,,,,,1,1h[2:1],,,,,2b,,,,3b,,1,5,3,7,8,1,,,4,,2,,1,,5,,6,,7,,1b,,1,,5,,4,,7,,3,,7,,3,,2,,8,,7,,1,,4,,5,,,,3h[2:3],1,2,4,5,6,7,8,1,2,4,5,6,7,8,1,2,4,5,6,7,8,1,2,4,5,6,7,8,,1,5,2,1,,,4,1,,3,,1,,,1b,,,2b,,,1b,,,2b,,,1,,4,,3,,5,,6,,5b,,,6b,,,5b,,,6b,,,5b,,,4,,3,,1,,5,,8,,6,,4,,3,,1,,5,,8,,6,,1,,6,,5,,4,,3,,5,,1,,3,,6,,,,8,,3,2,,,,,,,,,,,,5h[5:1]/4h[5:1],
