&title=きゅうくらりん
&artist=いよわ
&first=0.02
&lv_5=13
&des_5=
&inote_5=
(125){4},
E
&lv_7=14?
&des_7=Haya
&inote_7=
(220){4},,,,,,,,{16}8/2,
7,6/1,2,3/8,7,6/2,3,4/7,6,5/1,2,3/8,7,6/2,3,
{8}4/5,5/4,5/4,{16}6/3,7/2,{2}8s4[8:1]/1s5[8:1],
{8}8-4[8:1],8,1-5[8:1],1,6-3[8:1],6,2-5[8:1],2,
7<4[8:1],7,1-5[8:1],1,8v3[8:1],8,2-5[8:1],2,
1-6[8:1],1,2-5[8:1],2,7-4[8:1],7,8-3[8:1],8,
1s5[4:1],1,5s1[4:1],5,{2},{8}7-5[8:1],
7,2-4[8:1],2,8-6[8:1],8,1-3[8:1],1,
8<6[8:1],8,2-4[8:1],2-8[8:1],{2}2-6[8:1],
{8}2-4[8:1],2,7-5[8:1],7,1-3[8:1],1,8-6[8:1],8,
1>3[8:1],1,7-5[8:1],7-1[8:1],{2}7-3[8:1],
{8}6,6,3,3,5,5,7,7,
{12}2,3,4,6,7,8,1,2,3,5,6,7,
3,4,5,7,6,5,3,2,1,6,5,4,
2,3,4,6<3[4:1],7,8,{2}1,
{8}6-3[8:1],6,2-7[8:1],2,6>3[8:1],6,2<7[8:1],2,
6>3[8:1],6,2v1[8:1],2v8[8:1],{2}2v7[8:1],
{8}4-1[8:1],4,8-5[8:1],8,4>1[8:1],4,8<5[8:1],8,
{4}1x-3[8:1]*-4[8:1],1-7[8:1]*-6[8:1],1-5[8:1],1b,
5/4-2[8:1],5/4,5/6-8[8:1],5/6,
3/6>3[8:1],{8}2,2,,7b/6b,{4}7b/6b,
1/2-4[8:1],1/2,1/8-6[8:1],{8}1,2h[4:1],
,5,{4}6,{8}2b/3b,3b/2b,{4}2b/3b,
{2}8-5[8:1]/1p4[8:1],8v5[8:1]/1-5[8:1],
{8}7/8,2,{4}1/8p1[8:1],{2},1-6[8:1]/2p5[8:1],
7p8[8:1]/8q7[8:1],
{8}2/1,7,{4}6-1[8:1]/5z1[8:1],{2},{4}8/1-5[8:1],
8/1,2/1-5[8:1],1/2,
6h[8:3],{8}1-3[8:1],3-7-5[8:1],{2},{4}2-5[8:1],
6,7-3[8:1],2,
4bh[4:1],{8}7b,7b,,4b/2b,{4}4b/2b,
7-5[8:1],2-4[8:1],8-6[8:1],1-3[8:1],
{8}5,5,2,2,1,1,7,7,
{4}1>5[4:1],5<1[4:1],1V37[4:1],7-5-1[4:1],
1-3-5[4:1],5-7-1[4:1],1>5[4:1],5<1[4:1],
{1}1-3-7-5-1[4:7],
{8}3,3,3,3,3,3,3,{16}3,A1f,
{1}3-7-1-5-3[4:7],
{8}6,6,6,6,6,6,6,{16}6,A3f,
{1}6<8-4<6-2[4:7],
{8}3,3x,3b,3x,3,3,3b,{16}3bx,A2f,
{1}3-7[2:3]*-7[2:3],
{8}1,1,1,1,1,1,{4}1bw5b[8:1],
{2}1b,{8}7/5b,8b,1b,4/2b,
5,7/8b,2,4/3b,{16}6b,5b,{8}6b,7,1,
2/3,2/3,6,8/1,5,2/3,6,6/5b,
8,2/4b,1,6/4,7,5/4,2,5/3,
6,6/4,8/1,7/5,2/3,5,3,1,
1,7,6,6/5,3,1/2,1-7[8:1],6,
1-3[8:1],5,1-7[8:1],6,1-3[8:1],5,1,6,
{32}1b,2,3,4,5,6,7,8,1b,2,3,4,5,6,7,8,1bw5b[8:1],2,3,4,5,6,7,8,{4}1b,
{8}7/8,7/8,3/4,3/4,6/5,6/5,2/1,2/1,
{32}8/2-6[8:1],3,4,5,{8},{32}2-7[8:1],3,4,5,{8},{32}2-8[8:1],3,4,5,{8},{32}2b,3,4,5,{8},2/1,
2/1,6/5,6/5,3/4,3/4,7/8,7/8,
{32}1/7-3[8:1],6,5,4,{8},{32}7-2[8:1],6,5,4,{8},{32}7-1[8:1],6,5,4,{8},{32}7b,6,5,4,{8},2,
2,1/5,6,4,4,5/2,5/2,
{16}1b-5b[8:1],6b,2b,8b,{4}5b/1b<6b[8:1]*>4b[8:1],1b,3pp1[1:1],
,,,,,{8}7b/3b,
7b/3b,{2}5b/1b,
{8}5h/4-8[16:51],5h/4h,{4}5h/4h,6,2,
{32}7,6,{16},,,{32}2,3,{16},,,{32}6,5,{16},,,{32}3,4,{16},,,{8}7b,
7b,{4}2b,{32}6b,5b,{16},,,{32}1b,2b,{16},,,7,
6,5,4,3,2,1,8,{2}7-3[8:1],
{8}4h/6-2[16:51],4h/6h,{4}5h/6h,8,4,
{32}7,6,{16},,,{32}3,4,{16},,,{32}8,7,{16},,,{32}3,4,{16},,,{8}1b,
1b,{4}4b,{32}7b,6b,{16},,,{32}3b,4b,{16},,,1,
8,7,6,5,4,3,2,{2}1h[4:1],
{8}6h/3V17[16:51],5h/3h,{4}4h/3h,6,1,
{32}7,6,{16},,,{32}3,4,{16},,,{32}6,5,{16},,,{32}3,4,{16},,,{8}6b,
6b,{4}2b,{32}6b,5b,{16},,,{32}1b,2b,{16},,,8,
1,2,3,4,5,6,7,{2}8q4[8:1]*p4[8:1],
{8}8bh/1pp1qq1b[16:51],8bh/1bh,{4}1bh/8bh,7,3,
{32}6,5,{16},,,{32}4,5,{16},,,{8}6b,6b,{4}3b,
{32}7b,6b,{16},,,{32}2b,3b,{16},,,{8}3h,3h,{4}6h,
{16}2h,3h,4h,5h,6h,7h,8h,1h,{2}2b-6b[8:1],
{1}1p8q1[4:11],
,,{32}7,
6h[32:31],{16},,,,,,,,,,,,,,,{1}3-5-8q1[2:7],
,{32}7,
6h[32:15],{16},,,,,,,,,,,,,,,{32}5,
6h[32:15],{16},,,,,,,,,,,,,,,{1}1s5s1[4:5],
{32}7,6h[32:15],{16},,,,,,,,,,,,,,,{1}8v5v2[4:5],
{32}3,4h[32:15],{16},,,,,,,,,,,,,,,{4}5-8z4[4:5],
3bh[4:5],,,,,,7bh[2:1],
{2}8bh[4:1],{4}8/1,1/2,
{1}2v7[4:1]/3v6[4:1],
{4}4/5-1[8:1],{8}4,3,{16}8,2,8,2,{4}8,
8-4[8:1],{8}2,3,{16}5,3,5,3,{4}5,
1pp3[8:1],{8}1,2,{16}5,2,5,2,{4}5,
8qq7[8:1],{8}8,2,{16}1,6,1,6,{4}1,
6h[4:1],{8}4,4,4/6,4,4/7,4,
4/8,8,8/4,8,8/3,8,8/2,8,
8/1,8/1,7/2,7/2,6/3,6/3,{16}5,{8},{16}5,
{8},4,{16},4,{8},5,3,{16}3,{8},{16}2-6[8:1],
2b,{8},{16}7-3[8:1],{4}7b,,1bw5b[8:1]*-5[8:1],
{2}1bh,{8}7/1,6,4/2,3,
1/5,8,4/2,6/3,8,3/4,{16}6b,5b,{8}6b,
{16}4,3,4,2,4,3,4,1,4,3,4,1,4,3,4,2,
4,3,4,5,4,5,6,5,6,5,7,5,6,5,6,5,
{8}8,8,1,1,2,2h[8:3],3,4,
5,5h[8:3],6,7,8,8,{4}1b/8b-6b[8:1],
{32}1bx/8b-4b[8:1],B1,C,B5,{8}A5,{32}1bx-5b[8:1],E2,B2,E3,{8}A3,{32}8bx/1bx-3b[8:1],E8,B7,E7,{8}A6,{32}1bx/8bx<5b[8:1],B8,C,B4,{8}A4,
{4}8bx>3b[8:1],8bw4b[8:1],8b,B7f/E7f/B6f/Cf/B2f/E3f/B3f,
1<1[2:1],C,1<1[2:1],C,
1<1[2:1],C,1-5[8:1]*<5[8:1],A1,
{8}3h[4:1],4,5h[4:1],4,2h[4:1],4,6h[4:1],5,
5h[4:1],4,4h[4:1],3,{4}3h[4:1],2-6[8:1],
2b,{8}1,1,4,4,2,2,
{16}3,2,3,2,{4}3-1[8:1],3-5[8:1],3-7[8:1],
3,{8}8/2,8/2,{4}8-4[8:1]/2>5[8:1],8b/2b,
{8}8/1-4[8:1],8,8/1-3[8:1],8,8/1-4[8:1],8,7/1-3[8:1],7,
7/1-4[8:1],7,7/1-3[8:1],7,6/1-4[8:1],6,6/1-3[8:1],6,
6/1,6,5-7[8:1],6,5x-3[8:1],4,5x-7[8:1],6,
5x-3[8:1],4,5x-7[8:1],6,5x-2[8:1],4,5x-8[8:1],6,
{4}5x/4xh[8:7],{8}7,7,6,6,5,5,
5/4,5x/4x,{16}6,3,6,3,7,2,7,2,8,1,8,1,
8,1,2,8,7,2,3,7,6,2,3,6,5,3,4,6,
{32}5/2,3,4,5,6,7,8,1,2,3,4,5,6,7,8,1,2/7-3b[8:1],6,5,4,3,2,{16}1,{4}8,
{8}6/5,6/4,5/3,4/3,2/1,2/1,7/8<6[8:1],7/8,
{32}1/8b-5[8:1],2,3,4b,{8},{32}1/8b-4[8:1],2,3,4b,{8},{32}8w4[8:1],1,2,3b,{8},{4}8,
{8}3/4,3/5,4/6,5/6,7/8,7/8,2/1>3[8:1],2/1,
{32}8/1b-4[8:1],7,6,5b,{8},{32}8/1b-5[8:1],7,6,5b,,,,,,8,7,6b,,,,1,{4},{8}5,
1,4,8,3h[8:3],7h[4:1],{32},,,,,8/4,1b/5b,6/2,
7b/3b,8/4,1b/5b,6/2,7b/3bh[2:1],6,5,4,,2,1,8,7,6x,5,4,,2,1,8,{8}7bs3[8:13],{4}8b,
8b,8b,8b,8b,
{1}8b,
E
