&title=Belly laugh FUNK
&artist=HFHW
&first=0
&des_1=无孩爱龙男
&des_2=无孩爱龙男
&des_3=无孩爱龙男
&des_4=无孩爱龙男
&des_5=无孩爱龙男
&lv_5=13+
&des_6=无孩爱龙男
&des_7=无孩爱龙男
&des=无孩爱龙男
&inote_5=(135)
{1},
{16}7bs3[4:6]/8,,7,8,{32}7,,,,8,,,8,,,8,,,8,,,8,,,,8,,,,8,,,,8,,,,8,,,,8,,,,8,,,,8,,,,8v5[8:1],,,,8,,,,
{16}8V64[6:1],,6,,8v5[8:1],,2,,8V64[6:1],,6,,8v5[8:1],,2,,8v3[8:1],,,8V24[6:1],,,8,,,,A5h[4:1]/E5h[8:1],,,,,,
{16}4-7-1[4:1],,,7,4,,5,,4-7-1[4:1],,2,2,4,,3,,4-7-1[4:1],,,7,4,,5,,4-7-1[4:1],,2,,4,,3,,4-7-1[4:1],,,7,4,,5,,4-7-1[4:1],,2,2,4,,3,,4-7-1[4:1],,,7,4,,5,,4w8[8:1],,26,,4,,,,
1-6-4[4:1],,,6,1,,8,,1-6-4[4:1],,3,3,1,,2,,1-6-4[4:1],,,6,1,,8,,1-6-4[4:1],,3,,1,,2,,1-6-4[4:1],,,6,1,,8,,1-6-4[4:1],,3,3,1,,2,,1-6-4[4:1],,,6,1,,8,,1w5[8:1],,37,,1,,,,
{4}7bp1-7<6[4:5]/1bq7-1>2[4:5],,,,,,
{8},1,28,37,
{16}2^1-6^5[4:1],,,7,2,,8,,2^1-6^5[4:1],,4,4,2,,3,,2^1-6^5[4:1],,,7,2,,8,,2^1-6[8:1],,31,,2,,,,
{16}3^4-7^8[4:1],,,6,3,,5,,3^4-7^8[4:1],,1,1,3,,2,,3^4-7^8[4:1],,,6,3,,5,,3^4-7^8[4:1],,1,,3,,2,,2^1-6^5[4:1],,,7,2,,8,,2^1-6^5[4:1],,4,4,2,,3,,2^1-6^5[4:1],,,7,2,,8,,1w5[8:1],,37,,1,,,,
{16}8h[8:1]/3,,3,7,1h[8:1],,6,2,8h[8:1],,3,5,1h[8:1],,6,4,8h[8:1],,2,4,8h[8:1],,6,4,8,,8,,8-4[8:1]/3,,82,,
8/1,,1,5,3h[8:1],,8,4,6-1[8:1]
,,2,,
5-2[8:1]/6,,2,,
5/3-8[8:1],,,3/4-7[8:1],,,4,,
{8},A5h[4:1]/E5h[8:1],,,
{16}7/8qq6qq4[4:1]*qq6qq4[4:1],,,6,8,,7,,8qq6qq4[4:1]*qq6qq4[4:1],,2,2,8,,1,,8qq6qq4[4:1]*qq6qq4[4:1],,,6,8,,7,,8qq6qq4[4:1]*qq6qq4[4:1],,2,,8,,1,,8qq6qq4[4:1]*qq6qq4[4:1],,,6,8,,7,,8qq6qq4[4:1]*qq6qq4[4:1],,2,2,8,,1,,8qq6qq4[4:1]*qq6qq4[4:1],,,6,8,,7,,8w4[8:1],,62,,8,,,,
{16}4q7[16:4]*q7[16:4],,,6,4,,5,,4q7[16:4]*q7[16:4],,1,1,4,,3,,4q7[16:4]*q7[16:4],,,6,4,,5,,4-1[16:2],,1,,43,,,,
8q3[16:4]*q3[16:4],,,2,8,,1,,8q3[16:4]*q3[16:4],,5,5,8,,7,,8q3[16:4]*q3[16:4],,,2,8,,1,,8-4[16:2],,71,,8,,,,
||8q3[16:4],,,2,8,,1,,8p5[16:4],,5,5,8,,7,,8q3[16:4],,,2,8,,1,,8-4[16:2],,71,,8,,,,
{4}7bp1-7<6[4:5]/1bq7-1>2[4:5],,,,,,
{8},1,28,37,
{16}4q7[16:4],,,6,4,,5,,4p1[16:4],,1,1,4,,3,,4q7[16:4],,,6,4,,5,,4-1[16:2],,1,,42,,,,
8q3[16:4],,,2,8,,1,,8p5[16:4],,5,5,8,,7,,8q3[16:4],,,2,8,,1,,8-5[16:2],,5,,87,,,,
{16}4q7[16:4],,,6,4,,5,,
4p1[16:4],,1,1,4,,3,,4q7[16:4],,,6,4,,5,,4w8[16:2],,26,,4,,,,
{16},,7,7,{32}8,,,,8,,,17,,,26,,,35,,,4>1[8:1],,,,4,,,,
{16},,7,7,{32}8,,,,8,,,17,,,26,,,35,,,4>1[8:1],,,,4,,,,
{16},,7,7,{32}8,,,,8,,,17,,,26,,,35,,,4>1[8:1],,,,4,,,,
{16},,7,7,{32}8,,,,8,,,17,,,26,,,35,,,5/3>7[8:1],,,,4,,,,
{8}3q6[16:4],5,3>7[8:1],1,3q6[16:4],5,3>7[8:1],1,3q6[16:4],5,3>7[8:1],1,3q6[16:4],5,3,1,
7>3[8:1],,6/7p4[16:4],5,7>3[8:1],1,7p4[16:4],5,7>3[8:1],1,7p4[16:4],5,7>3[8:1],1,7,,
{4}2/4-7[8:1],2-5[8:1]/4,2/8-3[8:1],6-1[8:1]/8,
6/4-7[8:1],2-5[8:1]/4,2/8qq3^5[8:4]*qq3^5[8:4],{8}A5h[4:1],E5h[8:1],
E
