&title=SnowMix♪
&artist=まらしぃ/初音ミク
&first=0
&des=XM_Dresk
&lv_5=14
&inote_5=(185)
{4},,,,{64},
{8}
6h[8:2],,5,5,,3,3h[8:2],,4,4,,
5,4h[8:1]/6h[8:1],,37,,
E1,,E7/B6,,E3/B3,,E1,C,,E5,,E1,B7/B2,,E6/E4,,
3h[8:2],,4,4,,6,6h[8:2],,5,5,,
4,53,,62,,
E1,,E3/B3,,E7/B6,,E1,C,,E5,,E1,B2/B7,,E4/E6,,
{8}
7h[4:1],,5,6,56,,2h[4:1],,4,3,4-2-5[4:1]/3,,5-1[8:1],,6,,7h[8:3],,B8/E1/B1,,
B3/E3,,2,2h[8:1],,E5/B5/B4,,
6,6-3[8:1],,C,,2h[8:3],,4,4,3-1[12:1],,5h[4:1],,
{12}
E1,E2,E3,E5,E6,E7,E2,E3,E4,
{4}
E5/6-1b[8:1]*v3b[8:1],
{128}
6b-8-2-4-6[4:13],Cf,,,,,,,,,,,,,,,,,,,,,,,,,,,,,,,,
{4},,,,,,,,,,
{8}1,1h[8:1],,1,1,1h[16:1],1,1,1,,
2h[8:1]/8,7,6/E1/B1,6,6/B3/E4,6,6/E1/B1,6,6/B3/E4,6-2[8:1],,3-5[8:1],,7-1[8:1],,
4h[4:1],,8,8<4[4:1],,4>8[4:1],,8,,5,5-1[8:1],,2-4[8:1],,8-6[8:1],,3,,
2,2/E5/B5,2,2/B7/E8,2,2/E5/B5,2,2/B7/E8,2-6[8:1],,7-1[8:1],,3-5[8:1],,
6pp2[8:3],,2,2<4[8:3],,,,3qq7[4:2]*pp7[4:2],3,,,,,,,1b/8b,,
C/2-7[8:1],2,6-3[8:1],6,2-7[8:1],2,6-3[8:1],6,1,1<6[8:1],,
3/1>4[8:1],,1-5[8:1]/7,,31,,6h[8:1],4-8[8:1],4,7-5[12:1],7,1-3[12:1],1,
8,8<5[8:1],,2/8>3[8:1],,8-4[8:1]/6,,28,,3h[8:1],
5-7[8:1],6,4-8[8:1],3,5-1[8:1],6,4,2>5[8:1],,8-4[8:1]/2,,8/1-5b[8:1],,
1/6<4q5[8:5],,4,4h[4:2],,,,,,
{12}A1,A2,A3,A5,A6,A7,A2,A3,A4,
{4}8h[4:1],
{8}
1-5[4:7],,E8/B8,,E7/B6,,B3,E8/B8,,E7/B6,,B3,E8/B8,,E7/B6,,
7,7h[8:1],3,3h[8:1],5,6h[8:1],1,2h[8:1],5-3[8:1],1qq2[4:2],5,1,,,,,
8-4[4:7],,E2/B1,,E3/B3,,B6,E2/B1,,E3/B3,,B6,E2/B1,,E3/B3,,
2,2h[8:1],6,6h[8:1],4,3h[8:1],8,7h[8:1],2-6[8:1],6qq2b[4:2],2,,,,,,
E8/B8,,B6/E7/4,,E8/B8/4h[8:1],,B6/E7,4,E8/B8,4h[8:1],B6/E7,,E8/B8/4,,B6/E7/4,,
35,3/5h[8:1],,4h[8:1],6,3,25,2h[8:1]/5h[8:1],,6,3,4h[8:1]/7h[8:1],,47,47,,
2b/5,4,3,8b/2,7,3,4b/6,5,3,7b/1,6,2,
{16}
1/7-3[8:1],,,2,7,,1,,
{8}
1b/8b,1b-5[8:1]/8b-4[8:1],2b/7b,
{64}
1b/8b,Cf,,,,,,,,,,,,,,,
{8}
,1b/8b,1b-5b[8:1]/8b-4b[8:1],2b/7b,
{64}
1b/8b,Cf,,,,,,,,,,,,,,,
{32}
E6/B5/B4/E4,B6/B3,C,B7/B2,E8/E2,E1,,,
{8}
,,,7bh[4:1]/1bh[4:1],,,7bh[4:1]/1b,,,
{16}
1,2,3,4,1,8,7,6,4,3,2,1,
{8}
8/4b,4b<7[8:1],,1,1-5[8:1],,8,8-6>5[8:1],,8/3pp4[8:3]*-1-4[8:3],,3,,,,,
7-3[8:1],,71,,2-4[12:1],,25,6-8[12:1],,16,2-5b[12:1],,25,6-1b[12:1],,16,
2-4[12:1]*-6[8:1],,2,,3v8[8:1],3-5-7[4:1],,,1,1,8,
2b-6b[8:1]/7b,,8b-4b[8:1]/2b,,8b/3bpp2b[8:3],,3b/6b,,,
7bh[4:1],,,5b/3bh[4:1],,,
{16}
4,5,6,7,1,2,3,4,8,7,6,5,
{8}
4/8b,8b-3[8:1],,5,5-1[8:1],,2,2-4[12:1],,
7qq3b[4:2]/2,,7b/B5/E5/B4,,,,,1,2,35,6,4b/7h[8:1],,3,3h[8:1]/5b,,6,6b/4h[8:1],,
2,2b/5h[8:1],,6,6v1[8:1]/3,,4>5b[4:2]/6,,4b/Cf,,,,,,
8,7,6-1[8:1]/2-5[8:1],,62,,3b/7b,3b/7b,,,
{16}
1,2,3,4,6,7,8,1,5,4,3,2,8,7,6,5,2,4,3,4,2h[16:1],,7,5,6,5,7h[16:1],,2,4,3,,
7,8,7,6,7,,2,1,2,3,2,,6,5,6,7,6,,3,4,3,2,3,,5,4,5,4,6,,
3,4,2-4[8:1],,1,,2,,6,5,7-5[8:1],,8,,7,,3,4,3-1[8:1],,5,,3,,6,,6-4[8:1]/2,,,,
3,,3,,,,6,5,7,,3,4,2,,7,8,6,,3,4,2h[8:1],,
{24}
8x,7,6,
{16}
5/4-8[8:1],,3h[8:1],,4,,3,,
8,7,6,5,
3bx,4,3,6bx,5,6,
3bx,4,2,6bx,5,7,
2bx,4,3,7bx,5,6,
3bx,4,1,6bx,5,8,
2bx,4,3,7bx,5,6,
3bx,4,2,6bx,5,7,
2bx,1,3,7bx,8,6,
3bx,4,2,6bx,5,7,
3bx,4,3,6bx,5,6,
2bx,4,2,7bx,5,7,
4,,5,,
{12}
3x,4,3,6,6,5,8x,4,7,3,3,5,2x,4,1,7,7,5,
{16}
6bx/4bx,,6bx-2b[8:1]/4bx-8b[8:1],,,,6b/4b,,,,,,
7,1,7,1,6,2,6,2,5,3,5,3,6,4,6,4,7-3b[8:1],3,7,3,7b,,2b,,,,,,
{32}
1b/5b,26,37,48,,,,,,,,,
8b/4b-8[8:1],37,26,15,,,,,,,,,
{16}
1,2,3,4,5,6,7,8,1,2,3,4,
{8}
5b/1b,5b/1bv6b[8:1],,3,2-5[8:1],,27,8-4[8:1],,8<5[8:1]/3>8-4b[8:3],,38,,,,
{8}
,6h[8:1]/5h[8:1],,4h[8:1]/7h[8:1],,8-4[8:1],1,8,2-5b[8:1],1,2,7-4[8:1],8,7,1-5b[8:1],8,1,6-8[8:1]*-4[8:1],,6,,
3,5,26,26,
{16}
17,2,3,4,5b/6b,,
{8}
7b-3b[8:1]/8b,,8b-4b[8:1]/A7f,,A8f/5b-1b[8:1],,A5f/3b,,,
{32}
8b/4b,73,62,51,,,,,,,,,
1b/5b-1[8:1],62,73,84,,,,,,,,,
{16}
8,7,6,5,4,3,2,1,8,7,6,5,
{8}
4b/8b,4b/8b-2-4b[8:1],,5,5-1[8:1],,35,2-4-6[8:1],,2/7<1b[8:4],,7/Cf,,,,,
3,4,6,7,
8hb[4:1],,2h[8:1],4hb[8:1],3h[4:1],,7hb[4:1],,5h[8:1],6hb[8:1],1h[4:1],,8,,
7-4[8:1]/3v8[8:1],,
{64}
3b-5-7-2b[8:3]/7b-1-3-6b[8:3],Cf,,,,,,,,,,,,,,,
{8},,,,
15,48,3v1b[8:1]/7v5b[8:1],,37,,2b/6b,2b/6b,,,
1<6[8:1],2,3,4>1[8:1],5,6,7<4[8:1],8,1,2<7[8:1],3,4,5-1[8:1],4,
5-3[8:1],,7-5[8:1]/5,,7-1[8:1]/2-6[8:1],,2-4[8:1]/7,,2-8[8:1]/7,8-4[8:1],
2/7-3[8:1],6,7-5[8:1],5-1[8:1],7,,2,,
3<6[8:1],2,1,8>3[8:1],7,6,5<8[8:1],4,3,2>5[8:1],1,8,7-3[8:1],3,
7-5[8:1],,7/4-8[8:1],,4>1[8:1]/6<1[8:1],,4/6-4[8:1],,3/6-2b[8:1],2-8-4[4:1],
36,4-6b[8:1],3-7[8:1],,3w7b[8:1],,3,,
5>4-2[8:1],6,7,8<7-5[8:1],1,2,3>2-8[8:1],4,5,6>5-3[8:1],7,8,1-5[8:1],2,
1-3[8:1],,1/4-8[8:1],,4-2[8:1]/6-4[8:1],,6-2[8:1]/4,,6/3-1[8:1],4,3-5[8:1]/6,5-2[8:1],
3/6v1b[8:1],7,6,,38,,
{16}
1b/7b,,6,5,6,,2b/8b,,3,4,3,,1b/7b,,6,5,7,,48,,26,,37,,
26,,1v4b[8:1]/5v8b[8:1],,,,
{64}
1>2v3<4v1[4:10],5<6v7>8v5[4:10],Cf,,,,,,,,,,,,,,,
{4}
,,,,,,,,,,,
A3,A4,A5,A6,C,,,,
E
