&title=透明エレジー
&artist=n-buna feat.GUMI
&first=0
&des=MikanStar
&lv_5=13+
&des_5=MikanStar
&inote_5=
(220){4},{8},,,,,,4,
5,{4}4-2[8:1],6,{8}5,2,
{4}5-7[8:1],{8}2,3,{4}4-8[8:1],{8}7,6,
{4}5-1[8:1],{8}2,3,{4}4h[4:5],8>2[8:1],
8,8<6[8:1],8,8-4[8:1],
8,{8},,,,5,4,
{4}5-7[8:1],2,1-3[8:1],1/8-6[8:1],
8,4,4h[4:1],{8}5h[8:1],3,
6,4,5,4,{4}6/3-1[8:1],8-6[8:1]*-4[8:1],
{8}8b,,,5,3,4,2,5,
1,6,{4}1-3[8:1],{8}1,8,7,6,
{4}5/4-1[8:1],6,5-8[8:1],1-3[8:1],
{8}1,8,7,6,{2}5-7[8:1]*-3[8:1],
{4}8/2-4[8:1],{8}2,1-7[8:1],,1,{4}2b-5[8:1],
{8},8,7,6,4,5,3,6,
2,5,2,5h[8:9],,,{4}1-3[8:1],
1,1-7[8:1],1,1-5[8:1]/5-8[8:1],
1b/5,{8},,,,4,5,
{4}4>2[8:1],7,8<6[8:1],1-5[8:1],
1,{8},,,,5,4,
{4}5<7[8:1],2,1>3[8:1],8-4[8:1],
8,{8},,,,4,5,
{4}3h[4:1],{8},,,,5,4,
{4}6h[4:1],5,5h[4:1],7q8[2:1],
4,3,2,{8}1,8,
2,7,{4}1h[4:1],6-8[8:1],2/6,
3-1[8:1],8/3,7-5[8:1],7/1-5[8:1],
1,{8},,,,4,5,
{4}3-1[8:1],6/3,7-5[8:1],7/1-5[8:1],
1,{8},,,,4,5,
{4}4/6h[4:1],{8},,,,5,4,
{4}5/3h[4:1],5h[4:1],{8}2,4,3,5,
{4}4h[4:1],{8}5,5,{4}4-2[8:1],5,
1b/6,7/1,{8}1,8,2,7,
{4}1pp4[8:5],{8}8,8,{4}7,6,
5pp5[2:1],4,3,{8}2,4,
{2}3-7[8:1],{4}8/6,5/1,
{8}2,4,2-8[8:1],4,{4}2,7h[4:1],
8,{8}1,6,{4}2h[4:1],5,
{8}3,4,{4}2-4[8:1],2/5,5h[4:1],
{8}4,6,3,7,{4}2h[4:1],8-4[8:1],
8b,{8}3,3,{4}8<5[8:1],{8}8,1,
2b,4,3,5,{4}4-8[8:1],{8}7,6,
{4}5-1[8:1],{8}2,3,{4}4>1[8:1],{8}4,5,
6b,8,7,1,8-6[8:1],2,8-4[8:1],3,
8b,2-8[8:1],,2,{4}7-5[8:1],{8}7,8,
1b-3[8:1],5,1-5[8:1],6,{4}1,{8}7,7,
{4}4-2[8:1],{8}4,5,6-4[8:1],1,6q8[8:3],2,
{4}6,2>5[8:1],2b,8-4[8:1],
8b,{8}3,3,8-6[8:1],2,8-4[8:1],1,
{4}8b,{8}1,2,{4}3-1[8:1],{8}7,6,
{4}5v8[8:1],{8}2,3,{4}4v1[8:1],{8}7,7,
6,8,5,1,5-7[8:1],2,5-1[8:1],3,
5b,4>1[8:1],,4,8,8,1-5[8:1],7,
{4}1b,{8}6,6,{4}4-2[8:1],{8}4,5,
{4}6-8[8:1],{8}1,2,3-5[8:1],8,3-1[8:1],7,
{4}3,3-7[8:1]/6-4[8:1],{2}6b/3,
{8}1,8,{4}2h[4:1],{8}7,6,5,1-3[8:1],
,1,8,7,{16}6,5,6,5,{8}6,4,
5-7[8:1],3,{4}5,1-3[8:1],1,
{8}7-4[8:1],4-8[8:1],7,3,{4}2-6[8:1],2,
{8}7b,8-4[8:1],,8,{16}1,2,{8}3,5,6,
7-1[8:1],4,{4}7b,{16}2,3,4,5,{8}8,8,
{16}1,2,3,4,{8}7,7,{16}2,3,4,5,6,7,8,1h[16:3],
,,8,7,6,5,{8}2-4[8:1],,2,5,5,
4,4,6,3,7-5[8:1],2,7-4[8:1],1,
7,{16}1,2,{8}3,5,4,6,3,7,
7,1-3[8:1],8,1,{16}7,6,{8}5,3,{16}6,5,
{8}4,2,2,4,4-8[8:1],1,{4}4,
1b,{16}1,2,3,4,{4}5/1b-7[8:1],1,
{8}1-3[8:1],6,{4}1b,5h[4:1],{16}1,2,3,4,
{8}5,6,4,7,3,8,2-5[8:1],1,
{4}2b,{8}8-4[8:1],3,{4}8b,3-1[8:1]*-8[8:1],
,,,8,
{8}1,8,{4}1h[2:1],{8},,8,2,
{4}8h[4:3],{8},,,,2,7,
{1}2h[4:1],
{8}6,3,{4}6h[2:1],{8},,4,5,
4h[8:5],,,,,5,3,5,
{4}3h[4:1],4,4h[4:1],5,
5h[2:1],6,{2}6,
{8}4,5,{4}4h[2:1],{8},,5,4,
{4}6h[4:3],{8},,,,3,6,
{4}2h[4:3],{8},,,,7,2,
{4}8h[4:3],1,2,3,
{8}4h[4:1]/8<4[4:3],,,,,,,1,
{4}1q3[8:5],,,8,
{1}8p6[8:5],
{4}4h[4:1],5h[4:1],3h[4:1],6h[4:5],
{1}2h[1:1],
{4},7h[4:1],1h[4:1],8-4[8:1]*-5[8:1],
8b,{8}3,3,{4}7-5[8:1],{8}7,2,
8b-6[8:1],1,8-4[8:1],3,{4}8,{8}1,2,
{4}3-8[8:1],{8}7,6,{4}5-1[8:1],{8}2,3,
4b-2[8:1],8,4-8[8:1],7,4,6,6-4[8:1],1,
6b,2-5[8:1],,2,{4}8-4[8:1],{8}8,1,
2b-6[8:1],5,2-4[8:1],7,{4}2,{8}8,7,
{4}5/6v1[8:1],{8}2,3,4-8[8:1],8-3[8:1],{4}4,
7V51[8:3],7/2-4[8:1],2b,8-4[8:1],
{8}8b,3-7[8:1],,3,{4}5h[4:1],{8}1-3[8:1],6,
1b-4[8:1],7,1-5[8:1],8,{4}1,{8}8,7,
{4}6-1[8:1],{8}2,3,{4}4-8[8:1],{8}7,6,
5-7[8:1],1,5-1[8:1],2,5,3,3-5[8:1],8,
3b,7-4[8:1],,7,{4}1-5[8:1],{8}1,8,
7-4[8:1],4-8[8:1],7,3,{4}2h[4:1],{8}1,8,
{4}7p3[8:1],{8}3,2,{4}1q5[8:1],{8}6,7,
{4}8-6[8:1]*-2[8:1],8-4[8:1],8b,{8}3,5,
{4}4h[4:1],6v1[8:1],3,{8}2-5[8:1],8,
{4}2,7h[4:1],1-3[8:1],1-5[8:1]/6-1[8:1],
{2}1b/6,{8}4,5,3,6,
2,7,{4}1-3[8:1],{8}1,8,7,6,
{4}5-7[8:1],2,1-3[8:1],8-4[8:1],
{8}8,1,2,3,{2}4-6[8:1]*-2[8:1],
{4}1/7-5[8:1],{8}7,8-2[8:1],,8,{4}7b-4[8:1],
{8},1,2,3,5,4,6,3,
{4}7-5[8:1],{8}7-3[8:1],2,{4}7,1-3[8:1],
1/6-8[8:1],6/4-2[8:1],4,8-4[8:1],
{8}8b,1,2,3-1[8:1],,8,7,6,
1,5,{4}1-4[8:1],{8}1,8,7,6,
{4}4/5-8[8:1],3,2-6[8:1],1,
8-4[8:1],{8}8,1,{4}2-5[8:1],{8}8,7,
{4}6-4[8:1],{8}6,1-3[8:1],,1,{4}7b-3[8:1],
{8},4,4,5,3-5[8:1],6,3-1[8:1],7,
{4}3,{8}8,7,{4}6v1[8:1],2,
3v8[8:1],7,{2}6-1[8:1]*-8[8:1],
{4}2-6[8:3],{8},,,,8,1,
{4}8h[4:1],{8}2,7,3,3,3,3,
E
