&title=翠社
&artist=庭師/Aoi
&first=-0.04
&des_1=邹溪河
&des_2=邹溪河
&des_3=邹溪河
&des_4=邹溪河
&des_5=邹溪河
&lv_5=14+
&des_6=邹溪河
&des_7=邹溪河
&des=邹溪河
&inote_5=(180)
{1},
{4},
{16},,,,5p3>5[4:6],4,5,,,,,,,,E1,,,,E3,,,,
{32}A3,D4,,,,,,,,,,,,,,,E2,B2,,,
{8},1xh[4:2],,7h[4:2],,,,8q2[4:3],,E7,E6,,,,5h[4:2],,,,,4q6<4[4:6],,,
{32},,,,A6,D6,,,,,,,E8,,,,,,,,E1,B1,,,,,,,,,,,,,,,B6,E6,,,
{4},
{15}75,,7,5,6,4,5,3,6,4,7,5,6,4,5,
{4}3v2-8[8:4],,
{8},7-4b[8:1],,7,,
{16}3,4,3,,3,4,3,,2,1,2,,2,1,2,,7,8,7,,7,8,7,,6,5,6,,6,5,6,,2,4,3,,6,4,5,,1,4,3,,6,4,5,,2x,4,3,5x,4,6,5x,7,3x,5,4x,6,5x,7,,,7-4[8:1],,7,,1-5[8:1],,1,,6-1b[8:1],,6,,3<6[8:1],,3,,8,,8,,7xh[4:1],,
{32}E1,E2,E3,E4,,,,,6xh[4:1],,,,E8,E1,E2,E3,
{16},,7,5,6,4,5,3,
{24}8,7,6,5,8,7,6,5,1,2,3,4,1,2,3,4-1b[8:1]/8bz4[8:3],,,,,,
{16},,,,1x,,2x,,3x,,
{32}4>1[8:1]/E1f,B8,B7,E7,,,,,
{8},5,
{32}5<8[8:1]/E1f,B1,B2,E3,,,,,
{8},4,
{32}4-1[8:1]/A8f,E8,E7,E6,A5,,,,
{8},5,
{32}5-8[8:1]/A1f,E2,E3,E4,A4,,,,
{8},4,
{32}E1f/4v1[8:1],B8,B7,E7,,,,,
{8},5,
{32}5/E1f,B1,B2,E3,,,,,
{8},6-1[8:1],4,,3h[4:1],1,,
{16}7,7,5,6,3,3,5,4,6b-4[8:1],,7,8,6,,3,,2-5[8:1],,1,8,2,,6,,7<5[8:1],,8,1,7,,4,,4q8[8:1],,4qq2[8:1],,4x,,,,8<6[8:1],,1,1,8,,5,,5q1[8:1],,4,6,5,,,,2,,13,,
8,8,4,4,6,6,2,2,4,4,
{32}8bx/E1f,1x,2x,3x,E5h[4:1],,,,
{16},,B8/B1/E1,,,,1b-5[16:1],,,7b-4[16:1],,,3,3,B4f,,,,42,,5p1[8:1],,6,6,5,,7b<4[8:1],,8,1,7,,2-5[8:1],,6,6,2,,7>1[8:1],,6,5,7,,2,,13,,8,,6h[8:3]/5,,
{32}7,8,1,2,3,4,5,,
{10},7h,8h,2h,4bh,
{16},,6,,57,,1v6[8:1],8,2,,1b,,4,,53,,2-5[8:1],1,3,,2b,,7,,65,,4,,53,,2,4,3,5,4,6,5,6,5,7,5,6,4,5,3,4,2,8,1,8,1,8,1>5[8:2],,7,6,5,,7,8,1,,1-6[8:1]/5v2[8:1],,,,5/1>6[4:1],,,,7,,7-4[8:1],,,,
{32}7/E1,B1,,,,,,,
{16}2V86[4:1],,3,,24,,,,,,6<1[8:1],4,5,3,6V42[4:1],,,,6x/8x-5[8:1],,,,8,,,,,,2<7[8:1],4,3,,,,5bh[4:1],,,,A7,A8,A1,A2,6,7,8,1,2-5[8:1]/4,,,,23,,,,3h[4:1],,E4,,5,4,5bh[4:4],,,,6h[8:1],,,,7h[8:1],,,,8h[8:1],,,,
{32}1bx/E1f,2x,3x,4x,5V71[4:1],,,,
{16},,5/3-8[8:1],,,,3,,,,7,7,8b,,6-1[8:1]/5,,,,
{32}6/B3,B4,,,,,,,
{16}2>5[8:1],1,3,8,2<7[8:1],,,,
D2f/4xb,,,,5,6,4h[6:7],,
{6}E7,B4,B8,B2,E6,B1,C,
{24},,
{16},,7,5,6h[6:7],,,
{6}E1,B7,B3,B5,B1,B4,
{24}A2,A3,A4,
{16},,,7pp4[8:3],5,6,4,7,,,,
{32}A1,A2,A3,A4f,
{16},,5x/3x,,7,8,7,,64,,2,1,2,,53,,7,8,7,,64,,2,1,2,,3>8[8:1],,5,,3,,6,,7x/5x,,8,1,7,,43,,2,1,3,,75,,8,1,7,,53,,2,4,3,,6-1[8:1],,,,65,,,,1/3b,,8,1,7,,6b/5,,3,5,4,,1b/2,,8,5,6,,2/4b,,2,4,3,,5b-8[8:1]/4-1b[8:1],,,,5/4b,,,,8b/1b,,6,5,7,,8b/2b,,3,4,2,,7bv4pp6[4:2]/1bv4qq2b[4:2],,,,,,,,,,,,,,,,5b<2V86v3[4:6]/3,,,,4h[4:11],,
{4},,,,,,
{8}2x<5q1[4:3],2x,
{4},,,,,
{16}D1,D8,D7,D6,D5,D4,D3,D2,D1,,4-1[8:3],,4,,,,5,,5,,,,
{8}6,6,6p4[4:3],,3,3,2,2,1,1,8,8h[4:1],4,4h[4:1],2,2h[4:1],6pp4b[4:3],6,,,3h[4:2],,,,,,
{16}4-6[8:1]/2>4[8:1],,,,2/4V28[4:1],,,,6xh[8:2],,,,,,,,7-5[8:1]/5>3[8:1],,,,7/5<1[8:2],,,,3xh[8:2],,,,,,,,1-7[8:1]/3-1[8:1],,,,1>5[4:1]/3,,,,7xh[4:1],,,,,,,,7-5[8:1]/5-3[8:1],,,,7/5<1[8:2],,,,3xh[8:2],,,,,,,,
{8}8,71,6,54,3,24,1,71,6>4[8:1],8,1-5[8:1],1,6-8[8:1],6,5,5,
{16}8,4,7,3,6,2,5,1,
{32}4,5,6,7,8,1,2,3,4,5,6,7,8,1,2,3,
{8}4bz8[8:2],,,1,2,3,4,
{32}4xh[8:1]/1x,8x,7x,6x,,,,,
{8},5,
{32}5xh[8:1]/8x,1x,2x,3x,,,,,
{8},4,
{32}1x/4xh[8:1]/E1f,8x,7x,6x,,,,,
{8},5,
{32}E1f/8x/5xh[8:1],1x,2x,3x,,,,,
{8},4,
{32}4xh[8:1]/1x/E1f,8x,7x,6x,5x,,,,
{8},5,
{32}5xh[8:1]/E1f/8xqq5[4:2],1x,2x,3x,4x,,,,
{4},,
{16},,3,4,3>8[4:1],,,,8V24[4:1],,7,,6h[4:1],,,,,,6,5,6<1[8:2],,,,1V75[4:1],,2,,3-8b[8:1],,,,,,,,6bx/1bx,,7-4-1[8:2],8,7,,7bx/B8/E1f/B1,,,,,,2,8,3,7,4,6,5,7,4,8,3,1,2-5[8:1],,,,2/8z4[8:2],,,,4x,,3x,,2x,,1x,,
{32}1xh[8:1]/5x,6x,7x,8x,,,,,
{8},8,
{32}8xh[8:1]/4x,3x,2x,1x,,,,,
{8},1,
{32}1xh[8:1]/5x/E6f,6x,7x,8x,,,,,
{8},8,
{32}8xh[8:1]/4x/E4f,3x,2x,1x,,,,,
{8},2,
{32}E6f/2xh[8:1]/5x,6x,7x,8x,1x,,,,
{8},6,
{32}E4f/6xh[8:1]/4x,3x,2x,1x,8x,,,,
{8},6xbpp1b[4:2]/4xbqq1[4:2],,,,,,,
{16}2,8,1>4[8:1],7,8,,1b/5h[8:2],,,,,,7,5,6,4,5-1[8:1],,3,,5/4-7[8:1],,,,4/8>3[8:1],,,,8x/5x-1[8:1],,,,5x/3x,,,,1/2,,6h[8:1]/4h[8:1],,,7h[8:1]/5h[8:1],,,18,,5h[8:1]/3h[8:1],,,2h[8:1]/4h[8:1],,,18,,7h[8:1]/5h[8:1],,,4h[8:1]/3h[8:1],,,28,,8b<5[8:1]/2b>5b[8:1],,,,,,,,64,,,,82,,
{32}8x,7x,6x,5x,4xV68[4:1],,,,
{8},2,
{32}1x,2x,3x,4x,5x>3>1[4:1],,,,
{8},7,
{32}8x/E8f,7x,6x,5x,4x<6<8[4:1],,,,
{8},2,
{32}1x/E2f,2x,3x,4x,5xV31[4:1],,,,
{8},7,
{32}8x/E8f,7x,6x,5x,4x<6<8>6[4:2],,,,
{8}2,2b/B5/B4/E5f,,,,,
{16}7,5,6,4,5<1p4[4:2],3,4,2,5,,,,3-8b[8:1],3,,,3b,,,,1x>4[8:1],,6,,51,,,,5x<8[8:1],,2,,15,,,,8,1,8,2,1,,83,,7,5,6,4,5,,3,,24,,2,8,1,7,8,,64,,6,5,6,4,5,3,4,3,5,4,6,,7b-4[8:1]/5b,,8,8,7,,2,,3,4,3>8[8:1],5,4,,53,,6-4[8:1],,8,8,6,,2<8[8:1],,3,4,2,,5-1[8:1],,1,1,5,,2,,2,1,3,5,4qq8[8:4],,6,,6bh[4:2],,,,,,,,,,1,8,1,8,1,8,1,8,1,8,1bq5[8:1],,,,
{8}8bp4[8:1]/1,,2b>5[8:1]/8,,2/7b-4[8:1],,71,1,1,
{16}1,5,2,6,3,7,4,8,,,7,5,6,,82,,3,4,3,,71,,6,6,5,,74,,2,4,3,,71,,6,5,6,,82,,3>8[8:1],,4,,5,
,7h[8:1],,5,6,4,,8h[8:1],,3,3,4,,2h[8:1],,5,5,4,,7,5,6,4,5,3,4x>1[8:1],,,,8x/4x,,,,
{32}7b,6,5,,
{16}3,3,4,,
{32}2b,3,4,,
{16}7,7,8,,
{32}6b,5,4,,
{16}2,1,3,,
{32}7b,6,5,,
{16}3,4,3,,2>5[8:1],,5,,26,,,,
7b,3,6,4,3,5,2b,8,4,6,3,5,1b,8,4,6,3,5,2b,7,4,5,1,7,
{32}1b-5[4:17],2,3,4,7b-3[4:17],6,5,4,
E
