&title=ポルターガイスト
&artist=なとり
&first=-0.02
&des=譜面-541號
&lv_5=14
&des_5=譜面-541號
&inote_5=
(201){4},{16},,,,,,,,,,,,,3h[4:1],
,,,4,,5,,6,,6,,3,,4,
,6h[4:1],,,,5,,4,,3,,6,,5,,4,
,2h[4:1],,,,4,,5,,6,,6,,2,,3,
,7h[4:1],,,,5,,5,,3/7qq5b[4:1],,,,2,,,,1q3[4:1],
,,,6,,7,,6,,6,,3,,4,
,8p6[4:1],,,,3,,2,,3,,3,,6,,5,
,1q3[4:1],,,,6,,7,,6,,6,,3,,5,
,5/3,,4,,6/3,,8/2,,3/1-5[16:1],,,,4,{32},,,,,,4x,
3,2,1,8,7,6,5,4,3,2,1,8,7,6,5,4,3,2,1,8,7,6,5,4,3,2,1,8,7,
6,5,4,3,2,1,8,7,6,5,4,3,2,1,8,7,6,5,4,3,2,1,8,7,6,5,{16}4x-2[8:1]*-8[8:1],,,,,,,,1,
,1,,1-4[8:1]*-6[8:1],,2/8,,,,,,A6/E6/E5/A4,
,,,8-5[8:1]*-3[8:1],,7/1,,,,,,A5/B5/A3/B3,{32},,,,,,5x,
6,7,8,1,2,3,4,5,6,7,8,1,2,3,4,5,6,7,8,1,2,3,4,5,6,7,8,1,2,
3,4,5,6,7,8,1,2,3,4,5,6,7,8,1,2,3,4,5,6,7,8,1,2,3,4,{16}5x-7[8:1]*-1[8:1],,,,,,,,8,
,8,,8-5[8:1]*-3[8:1],,7/1,,,,,,A5/E6/A3/E3,
,,,6/2,,2/6,,1/5,,1/5,,4-7[8:1]/8-3[8:1],,8/4,
,,,,,A7/A3/B7/B3,,,,2/5,,1,,6/3,,4,
,5/7V14[4:1],,,,7/1,,2,,3,,,,5/E2/A1/A2,,4,
,3-6[8:1]*-1[8:1],,,,3,,,,8-5[8:1]*-3[8:1],,1,,8,,,,1-6[8:1]*-3[8:1],
,,,1,,,,5-8[8:1]*-2[8:1],,,,5b,,,,,,3-8[8:1]/6-1[8:1],
,,,6/3,,,,7/2,,3/6,,5,
,4/2V85[4:1],,,,2/8,,7,,6,,7,,4/E2/A1/A2,,5,
,6-3[8:1]*-8[8:1],,4,,6,,,,1-4[8:1]*-6[8:1],,8,,1,,,,8-3[8:1]*-6[8:1],
,,,8,,,,5/4,,,,2b/6b,,2b/6b,
,6xh[8:1]/2-4[16:1],,,,6h[8:1],,,,6h[8:1]/5-2[16:1],,,,6h[8:1],,,,7h[8:1]/3-8[16:1],
,,,7h[8:1],,,,7h[8:1]/1-5[16:1],,,,7h[8:1],,,,8h[8:1]/4-1[16:1],
,,,8h[8:1],,,,8h[8:1]/2-5[16:1],,,,8h[8:1],,,,7h[8:1]/6h[8:1],
,,,6h[8:1]/5h[8:1],,,,5h[8:1]/4h[8:1],,,,4h[8:1]/3h[8:1],,,,4/3-1[16:1],
,,,,,7,,8/7-5[16:1],,,,,,,,4h[8:1]/3h[8:1],
,,,3h[8:1]/2h[8:1],,,,2/1,,8,,7,,6,
,4/5h[4:1],,,,3-8[16:1],,3,,6-1[16:1],,6,,4,,4h[8:1],
,5,,6,,6/5,,4/5,{32},,4bx,3,2,1,5bx,6,7,8,4bx,3,2,1,5bx,6,
7,8,{16}1bxp4[8:3],,,,,,,,,,,,B7/B6,,,,1/8q5[8:3],
,,,,,,,,,,,B2/B3,,,,8/1>4[8:3],
,,,,,,,,,,,B4/B5,,,,1/8<5[8:3],
,,,,,,,,,,,B8/B1,,,,7/2,
,,,8/1,,,,7/2,,,,6/3,,,,6/5,
,5/4,,4/3,,5/4,,5/6,,5/4,,4x>5<4[8:7],,,,5,
,,,,,,,,,,,,,,,A6/B6/D7,
,,,E3/E4/A3/B3,,,,B6/B2/B3/C/B7f,{32},,,,,,,,,,,,,,4,
3,2,1,8,7,6,5,4,3,2,1,8,7,6,5,4,3,2,1,8,7,6,5,4,3,2,1,8,7,
6,5,{16}4h[4:1],,,,6b,,,,7/2,,6/1-4[16:1],,,,5b,
,,,3/6q2[8:1],,6,,3p7[8:1],,3,,6q2[8:1],,6,,3,
,4-1[16:1]*-7[16:1],,,,4,,,,8-4[16:1],,,,8,{32},,,,,,5,
6,7,8,1,2,3,4,5,6,7,8,1,2,3,4,5,6,7,8,4bx,3,2,1,8,7,6,5,4,3,
2,1,{16}8h[4:1],,,,5b,,,,4/7,,3/8-5[16:1],,,,4b,
,,,6/3qq1[8:1],,3,,6pp8[8:1],,6,,3,,,,2h[4:1]/E8/A7/E7,
,,,5-8[16:1],,5,,4-1[16:1],,4,,5-7[16:1],,5,,4,
,E7/A7/A6/3-1-5[4:1],,3,,6/3,,6,,7,,,,3/7-1-5[4:1],,6,
,2/7,,3,,4,,,,7-4[16:1]/4-2[16:1],,8,,7/4,,,,6/1-4-7[4:1],
,5,,4/1,,5,,6,,,,8h[8:1]/5h[8:1],,,,8v1[16:1]/5v4[16:1],
,,,,,,,1bx,4bx,1bx,4bx,1bx,,B4,
,2/5xh[8:1],,2,,5/2h[8:1],,6,,3/6h[8:1],,3,,6/3h[8:1],,5,
,4/3,,4/5,,6/5,,,,5h[8:1]/4h[8:1],,,,8/1,,,,6/3,
,4,,7/2,,6,,1b/8b,,,,8/3,,5,
,6/2,,7,,4bqq5[16:5]/5bpp4[16:5],,,,,,,,,,,,2-4[8:1],
,,,5,,5,,5-7[8:1],,,,8,,,,8-2[8:1],
,,,5,,5,,5-3[8:1],,,,2,,,,2-4[8:1],
,,,5,,5,,5-7[8:1],,,,8,,,,8-2[8:1],
,,,5,,5,,5-3[8:1],,,,2,,,,2-8[8:1],
,,,7,,7,,7-5[8:1],,,,4,,,,4-2[8:1],
,,,7,,7,,7-1[8:1],,,,2,,,,2-4[8:1],
,,,5,,5,,5-7[8:1],,,,3,,,,3-5[8:1],
,,,6,,6,,6-4[8:1],,,,3,,,,3h[4:1],
,,,5,,5,,3,,4,,6,,5,
,6h[4:1],,,,4,,4,,3,,6,,5,,4,
,2h[4:1],,,,4,,5,,6,,6,,2,,3,
,7h[4:1],,,,5,,4,,7qq5b[4:1],,,,,,,,1h[4:1],
,,,5,,5,,2,,3,,6,,4,
,8h[4:1],,,,5,,5,,7,,6,,5,,4,
,3h[4:1],,,,5,,6,,3,,3,,6,,5,
,7/4,,,,2/5,,1/6,,2/5,,,,6/4,,,,3/5b,
,,,3/5,,,,5/3,,,,5/3,,,,6/4b,
,,,4/6,,,,6/4,,,,6/4,,,,1/7b,
,,,1/7,,,,7/1,,,,7/1,,,,8/2b,
,,,2/8,,,,8/2,,,,8/2,,,,5/1bx,
,1/5,,5/1,,5/1,,2/6,,2/6,,6/2,,6/2,
,7/3bx,,3/7,,7/3,,7/3,,4/8,,4/8,,8/4,,8/4,
,3/7bx,,6/4,,3/5,,4/6,,7/2,,6/3,,5/2,,4/3,
,4-7[16:1]/3-8[16:1],,,,,,,,1x-6[16:1]/2x-5[16:1],,,,,,,,A6/E6/A5,
{32},,,,,,,,,,,,,,E7,C,{8}E3,{32},,,,,,,,,,5,
6,7,8,1,2,3,4,5,6,7,8,1,2,3,4,5,6,7,8,1,2,3,4,5,6,7,8,1,2,
3,4,{16}5bxw1b[8:1],5x,5x,5x,5x,,,,,,,,,,5b/Cf,
,,,3/6q2[8:1],,6,,3p7[8:1],,3,,6q2[8:1],,6,,3,
,4-8[16:1]*-2[16:1],,,,4,,,,1-5[16:1],,,,1,{32},,,,,,4,
3,2,1,8,7,6,5,4,3,2,1,8,7,6,5,4,3,2,1,5bx,6,7,8,1,2,3,4,5,6,
7,8,{16}1h[4:1],,,,5b,,,,2/7,,3/8-5[16:1],,,,4b,
,,,6/3p7[8:1],,3,,6q2[8:1],,6,,3,,,,4h[8:1],
,,,4/5<7[16:1],,5,,4>1[8:1],,4,,7,,8,{32},,,,,,1,
2,3,4,5,6,7,8,1,2,3,4,5,6,7,8,1,2,3,4,5,6,7,8,1,2,3,4,5,6,
7,8,{16}1h[4:1],,,,7b,,,,E3/A3/7v6b[8:1],,,,4,,4b,
,,,5/4p7[8:1],,4,,5q2[8:1],,5,,3q7[8:1],,3,,5,
,1-6[16:1]*-4[16:1],,,,1,,,,5-1[16:1],,,,5,{32},,,,,,8,
7,6,5,4,3,2,1,8,7,6,5,4,3,2,1,8,7,6,5,1bx,2,3,4,5,6,7,8,1,2,
3,4,{16}5h[4:1],,,,6b,,,,8/4,,6/1-4[16:1],,,,5b,
,,,3/6pp8[8:1],,6,,3qq1[8:1],,3,,6,,,,7h[4:1]/A2/B2/E3,
,,,4-2[16:1],,4,,5-7[16:1],,5,,4-1[16:1],,4,,5,
,A1/E2/A2/6-1-5[4:1],,6,,2/6,,3,,4,,,,6/3-8-4[4:1],,3,
,7/3,,6,,5,,,,2-5[16:1]/5-7[16:1],,8,,2/5,,,,3/8-5-2[4:1],
,4,,5/8,,4,,3,,,,1h[8:1]/4h[8:1],,,,4v1[16:1]/1v4[16:1],
,,,,,,,1bx,5bx,1bx,5bx,1bx,,B5,
,6/2xh[8:1],,6,,2/6h[8:1],,3,,7/3h[8:1],,7,,3/7h[8:1],,4,
,5/6,,5/4,,3/4,,,,6/5,,4/3,,8/1,,,,6/2,
,5,,7/2,,3,,1b/8b,,,,3/7,,4,
,2/7,,6,,8b/1b,,,,3,4,3,,2/5,,,,6/3,
,5,,6/3,,2,,1b/8b,,,,6/3,,3,
,7/2,,7,,8bq6[4:1]/1bp3[4:1],,,,,,,,,,,,4/5<8[16:1],
,,,3,,3>8[8:1],,6,,6,,B7/B6,,,,4/5-8[16:1],
,,,1,,1>4[8:1],,6,,6,,B6/E7,,,,4/7>2[16:1],
,,,3,,3<6[8:1],,8,,8,,B1/B2,,,,4/8-4[16:1],
,,,1,,1>4[8:1],,6,,6,,E6/E5,,,,7/4,
,,5,6,,4/7,,6/3,,5/2,,4/1,,2/5,
,3/6,4,5,,4/6,,7/5,,6/4,,5/2,,3/4,,3/4,
,5/2,,3,4,3,6,5,6,2,4,3,7,5,6,2,
4,3,5,4,6,3,7,2,,1/8,,,,7b/2b,,3qq5[16:5]/6pp4[16:5],
E
