&title=打打打打打打打打打打
&artist=ヒゲドライバー join. SELEN
&first=0
&des=HPTuse
&lv_5=14
&des_5=HPTuse
&inote_5=
(156){4},,,,{32}A3,
D4,{16}A4,{1},,{8}D1,
,,,E1,{16},,,,C,
,,,,E5,,,,D5,{32},,,,,D2,,,,,{16}E3,
,D4,D8,E7,D6,D1,D2,D3,D4,D5,A8,A7,A6,A5,{48},,,,,,{12}1,
1,1,1,1,1,1-5[12:1],1,1,1b,{48},,,,,,,,{16}4x-2[8:1],
6x,,6x,{8}4x,6,{16}5x-7[8:1],3x,,3x,{8}5x,3,
{16}4x-8[8:1],6x,,6x,{8}4x,5-1[8:1],4-2[8:1],5,{4}4,
{16}1x-3[8:1],8x,,8x,{8}1x,8,{16}8x-6[8:1],2x,,2x,{8}8x,1,
{16}1x-5[8:1],7x,,7x,{8}1x,8,4-8[8:1],5-7[8:1],4,5,
{16}2x-6[8:1],1x,,1x,{8}2,8,{16}7x-1[8:1],6x,,6x,{8}7x,4,
{16}2x-4[8:1],1x,,1x,{8}2x,5-7[8:1],4-8[8:1],5,{4}4,
{16}7x-3[8:1],8x,,8x,{8}7x,1,{16}2x-8[8:1],3x,,3x,{8}2x,5,
{16}7x-5[8:1],8x,,8x,{8}7x,4-2[8:1],5-1[8:1],4,{4}5,
E7/B6/4-2[8:1],D8/E8/4v1[8:1],E7/B6/4-2[8:1],E8/D8/4v1[8:1],
E7/B6/4-2[8:1],E8/D8/4v1[8:1],4/E7/B6,{8}4/E8/D8,{16}1,1,
{8}1,E8/B7/B8,5/3,B1/E2/B2,5/3,E8/B7/B8,6/3,B1/E2/B2,
6/4,E8/B7/B8,5/3,B1/E2/B2,{16}6/4,,,3/7,,,{8}2/8,
{4}E3/B2/8-6[8:1],D4/E4/8v5[8:1],E3/B2/8-6[8:1],E4/D4/8v5[8:1],
{16}8x,1x,2x,3x,4x/8-6[8:1],5x,6x,7x,8x,1x,2x,3x,{8}4b,{16}5,5,
{8}5,B1/E2/B2,3/4,E8/B7/B8,5/6,E2/B2/B1,3/4,B8/E8/B7,
6/4,B1/E2/B2,5/3,B6/E6/B5,{2}7-3[8:1]/2-8[8:1],
{16}5/4,,,5,{8}4,5,{16}6/3,,,3,{8}6,3,
{16}5/4,,,5,{8}4,5,4-2[8:1]/5-7[8:1],5/4,{4}5/4,
{16}1/8,,,8,{8}1,1,{16}2/7,,,2,{8}7,7,
{16}8/1,,,8,{8}1,1,1-3[8:1]/8-6[8:1],1/8,{4}8/1,
{16}4/5v8[8:1],,,4,{8}5,4,{16}4/5-7[8:1],,,4,{8}5,4,
{16}4/5v8[8:1],,,4,{8}5,4,4-2[8:1]/5-1[8:1],4/5,{4}4/5,
{16}8/1v4[8:1],,,8,{8}1,8,{16}8/1-3[8:1],,,8,{8}1,8,
{16}8/1v4[8:1],,,8,{8}1,8,8-6-8[4:1]/1-3[8:1],8/1,{4}8/1,
4,3/E7/B6,2/D8/E8,1/E7/B6,
8/E3/B3,7/E2/D2,6/B3/E3,{8}5/D2/E2,{16}4,4,
{8}4,E6/B6/B5,8/2,B4/E4/B3,8/2,E6/B6/B5,7/2,B4/E4/B3,
7/1,E6/B6/B5,7/1,B4/E4/B3,{16}7/1,,,2/6h[16:5],,,{8}4,
{4}5-2[4:1],2-6[4:1],6-1[4:1],1pp4[4:3],
8-5[8:1],8,8-6[8:1],{8}8,{16}5,4,
{8}3V16V83[4:5],4,5,6,5,4,3,4,
5,6,5,4,{16}5,,,5/2,,,{8}6/3,
{16}7/4,,,7/4,,,{8}6/3,{16}5/2,,,5/2,,,{8}5/2-8[8:1],
2,7-5[8:1],7,3V16[4:1],3,3/6w2[8:1],{4}6,
{8},6/4,2,3/5,7,3/5,2/6,8-6[8:1],
1-5[8:1],8-4[8:1],1-3[8:1],8,{16}1,,,8,,,{8}1/7,
2/6,4,2/6,8,1/5,3,1/5,7,
8/4,2,4/8,6,7/2,3/6,{4}4/5pp8[4:3],
{8},,,,,,,1,
{4}1-5[8:1],1,5/4h[4:1],5,
{16}E3,E7,E3,E7,E3,E7,E3,E7,A3,A4,A5,A6,A7,A8,A1,A2,
{32}A7,D7,A6,D6,A5,D5,A4,D4,A3,D3,A2,D2,A1,D1,A8,D8,{4}A7h[8:3],A3h[8:1],
{12}8x,3x,5x,1x,7x,2x,6x,4x,8x,3x,,,4,
7,1,5,3,6,2,8,4,7,,,1b,
6b,4b,8b,2b,7b,3b,5b,1b,6b,4b,7b,
{48}2bx,1bx,,,7bx,8bx,,,3bx,2bx,,,6bx,7bx,,,4bx,3bx,,,5bx,6bx,,,3bx,2bx,,,,,,,,,,,{4}E7/B6/E3/B3,
{12}8x/2x-4[8:1],7x,6x,5x/2x,6x,7x,8x/1x-5[8:1],7x,6x,5x/1x,,,4x/6x-8[8:1],
3x,2x,1x/6x,2x,3x,4x/5x-1[8:1],3x,2x,1x/5x,,,4-2[8:1],
5,6,7/4,8,7,6-8[8:1],5,4,3/6,2,3,
4bx,5bx,6bx,4b/7bx-3b[8:1],8bx/5b,1bx/6b,{4}7b/2bx,B6/E6/B5/B1/E2/B2,
{12}8x/7x-5[8:1],7x/8x,7x/8x,7x/8x,,,4x/3x-1[8:1],4x/3x,3x/4x,4x/3x,,,7,
3,6,2,5,{24}1x/8x,2x/7x,{2}3xh[4:1]/6xh[4:1],
{16}4/5v8[8:1],,,4,{8}5,4,{16}4/5-7[8:1],,,4,{8}5,4,
{16}5/4v1[8:1],,,5,{8}4,5,5-7[8:1]/4-2[8:1],5/4,{4}5/4,
{16}8/1v4[8:1],,,8,{8}1,8,{16}8/1-3[8:1],,,8,{8}1,8,
{16}1/8-6[8:1],,,1,{8}8-4[8:1],1-3[8:1],8-6[8:1],1-5[8:1],8,1,
{16}6-8[8:1],,,5,{8}6,5,{16}5-1[8:1],,,4,{8}5,4,
{16}4-2[8:1],,,5,{8}4,5-8[8:1],4-1[8:1],5,{4}4,
{16}8-6[8:1],,,1,{8}8,1,{16}1-3[8:1],,,8,{8}1,8,
{16}8,,,1,{8}8,1,2-6[8:1]/7-1[8:1],4/5,{4}2/7,
E
