&title=朧月夜
&artist=PIKASONIC
&first=0
&des=WTCP
&des_5=
&lv_5=13+
&inote_5={4}(125),,7h[4:1],{8}5,4,
{4}3p7[4:1],7p1[4:1],{2},{8}6,
5,4,3,{4}2h[4:1],4h[4:1],
{8}3,5,{4}3,{8}6p8[4:1],1,{4}8>6[4:1],
,{8}2,3,{4}5h[4:1],{8}2,4,
{4}2p5[4:1],5p8[4:1],{2},{8}6,
7,4,3,6h[4:1],{4},{8}4,
{4}5h[4:1],{8}4p6[4:1],5,{2}6<4[4:1],
{8}7,6,4,3,{4}2h[4:1],{8}4,5,
{4}6q2[4:1],2q8[4:1],{2},{8}3,
4,5,6,{4}7h[4:1],5h[4:1],
{8}6,4,{4}6,{8}3q1[4:1],8,{4}1<3[4:1],
,{8}7,6,{4}4h[4:1],{8}7,5,
{4}6h[4:1],{8}3,5,2,4,2,5,
4h[8:3],{4},{8}6,3h[4:1],{4},{8}5,
{4}4h[4:1],{8}5q3[4:1],4,{2}3>5[4:1],
{8}1x,2x,3x,4x,{4}6-1[8:1],{8}6-2[8:1],3,
{4}6-1[8:1],{8}6-2[8:1],3,{2}6v8[8:1]*v4[8:1],
{8}8x,7x,6x,5x,{4}3-8[8:1],{8}3-7[8:1],6,
{4}3-8[8:1],{8}3-7[8:1],6,{2}3v1[8:1]*v5[8:1],
{8}8x,7x,6x,5x,{4}4h[8:1]/2h[8:1],5h[8:1]/3h[8:1],
6h[8:1]/4h[8:1],7h[8:1]/5h[8:1],8h[8:1]/4h[8:1],1h[8:1]/3h[8:1],
2h[8:1]/8h[8:1],7h[8:1]/3h[8:1],{16}5,4,5,4,6,3,6,3,
7,2,7,2,8,1,8,1,{4}B8/E1/B1,B5/B4/E5,
{2}Cf/E7/E3,{4}7b-3[8:1],7/1-5[8:1],
1/8-4[8:1],8/2-6[8:1],{8}7<5[8:1],8,7/2>4[8:1],3,
2,{24}5,6,7,{8}8,4,{4}7b-3[8:1],7/1-5[8:1],
{8}1/8-4[8:1],7,8/2-6[8:1],1,2/8-4[8:1],7,8/1-4[8:1],2,
1/5,{24}5,6,7,{8}8/3,8,{4}2b-6[8:1],2/8-4[8:1],
8/1-5[8:1],1/7-3[8:1],{8}2>4[8:1],1,2/7<5[8:1],6,
7/3,{24}4,3,2,{8}1,5,{4}2b-6[8:1],{8}2/8-4[8:1],7,
{4}8/1-5[8:1],{8}1/7-3[8:1],8,{4}7/1-5[8:1],{8}1/8-5[8:1],7,
8/4,{24}4,3,2,{8}1/6,1,{2}5-1b[8:1],
{4}4-8[8:1],4/1-5[8:1],{8}1/4-7[8:1],3,4/8-5[8:1],1,
8,{24}4x,3x,2x,{8}1x,5x,{2}4-8b[8:1],
{8}5-1[8:1],4,{4}5/8-4[8:1],{8}8/5-2[8:1],6,5/1-4[8:1],8,
1,{24}5x,6x,7x,{8}8x,4x,6v1b[8:1]/2-5[8:1],7/3,{4},{8}7x-4[8:1],
6,7/1-5b[8:1],2,{4}1bx/8-4b[8:1],{8}8bx/2bx,1bx,
2,{24}8,7,6,{8}5,3,{4}5-8[8:1],{8}5/3-7[8:1],2,
3/6-2[8:1],5,6/3<3[2:1],4,{2}3,
{8}6,{24}4,3,2,{8}1,6,{2}1,
2,3,
{4}B7/B8,B3/B4,{2}6,
7,8,
{4}B1/B2,B6/B5,3h[8:1],3h[8:1],
3h[8:1],3h[8:1],3h[8:1],3h[8:1],
3h[8:1],3h[8:1],6h[8:1],6h[8:1],
6h[8:1],6h[8:1],6h[8:1],6h[8:1],
{8}3,5,2,6,{4}1>5[4:1],{8}5v2[4:1],6,
{4}7<6-4[8:1],7>8-2[8:1],{2},{8}6,
4,7,3,{4}8<4[4:1],{8}4v7[4:1],3,
{4}2>3-5[8:1],2<1-7[8:1],{2}4h[4:1],
{4}3/5,6/2,7h[8:1],7h[8:1]/B6/B5,
7h[8:1],7h[8:1]/B3/E4,7h[8:1],7h[8:1]/E2/B1,
7h[8:1],7h[8:1]/C,2h[8:1],2h[8:1]/B4/E4,
2h[8:1],2h[8:1]/B6/B5,2h[8:1],2h[8:1]/E8/B8/B7,
2h[8:1],2<4q2[1:3],{2}Cf,
{1},,,{8}5,
6,3,2,{4}6h[4:1],3h[4:1],
{8}4h[8:1],3h[8:1],{4}5h[8:3],{8},4h[8:1],{4}6h[4:1],
{8}3,4,5,6,{2}2<4[4:3]/7<4[8:3],
{4},,{8},6,7,8,
3,2,1-5b[8:1],8,{2}1-5>8[2:1],
{4}7,{8}6,7,{4}6h[8:1],5h[8:1]/3h[8:1],
{8}2,3,4,5,{4}6h[8:1]/4h[8:1],5h[8:1]/3h[8:1],
6h[8:1]/2h[8:1],7h[8:1]/3h[8:1],5h[8:1]/2h[8:1],6h[8:1]/3h[8:1],
{8}7,6,5,4,{4}3h[8:1]/5h[8:1],6h[8:1]/2h[8:1],
7h[8:1]/1h[8:1],8h[8:1]/2h[8:1],7h[8:1]/3h[8:1],6h[8:1]/4h[8:1],
7h[8:1]/3h[8:1],6h[8:1]/2h[8:1],{16}4,5,4,5,3,6,3,6,
2,7,2,7,1,8,1,8,{4}B8/E1/B1,B5/B4/E5,
{2}Cf/E7/E3,{4}1b-5[8:1],1/7-3[8:1],
7/2>5[8:1],2/6<1[8:1],{8}6/4-8[8:1],3,{4}4/1-5[8:1],
{8}1,{24}4,3,2,{8}1,6,{4}1b-4[8:1],{8}6-8[8:1],8-5[8:1],
6/2-4[8:1],4-1[8:1],{4}2,{8}7-3b[8:1],6,{4}7bx/8bx-4-1-5b[8:3],
{2},{4}8b-4[8:1],8/2-6[8:1],
{8}2/7<4[8:1],8,7/3>8[8:1],2,3/5-1[8:1],6,{4}5/8-4[8:1],
{8}8,{24}5,6,7,{8}8,3,{4}8b-5[8:1],{8}3-1[8:1],1-4[8:1],
3/7-5[8:1],5-8[8:1],{4}7-3b[8:1],,2x/6x,
4x,6x/2x,1b-5[8:1],1/7-3[8:1],
7/2>5[8:1],2/6<1[8:1],{8}6/4-1[8:1],3,4/8-5[8:1],7,
8,{24}4,3,2,{8}1,6,{4}1b-4[8:1],{8}6-8[8:1],8-5[8:1],
6/2-4[8:1],4-1[8:1],{4}2,{8}7-3b[8:1],6,{4}7bx/8bx-4-1-5b[8:3],
{2},{4}8b-4[8:1],8/2-6[8:1],
2/7<4[8:1],7/3>8b[8:1],{8}3/5-1b[8:1],6,5/8-4[8:1],7,
8,{24}5,6,7,{8}8,3,{4}8b-5[8:1],{8}3-1[8:1],1-4[8:1],
3/7-5[8:1],5-8[8:1],{4}7-3b[8:1],,2x/6x,
4x,6x/2x,{2}7-5[8:1],
4-8[8:1],6-1[8:1],
2-5[8:1],8-4[8:1],
1-5[8:1],8v3[8:1],
1v6[8:1],{4}7h[8:1],7h[8:1]/5h[8:1],
4h[8:1],6h[8:1]/3h[8:1],5h[8:1],6h[8:1]/2h[8:1],
3h[8:1],5h[8:1]/2h[8:1],7h[8:1],6h[8:1]/4h[8:1],
3h[8:1],5h[8:1]/2h[8:1],6h[8:1],7h[8:1]/4h[8:1],
{8}3,4,5,6,{2}7>5p7[4:7],
