&title=LibrariA
&artist=luze
&first=-0.642
&des=m
&lv_5=14
&des_5=m
&inote_5=
(190){4},{8},,,,,,1/8,
2-4[8:1],,8-6[8:1],,1-3[8:1],,7-5[8:1],
,2-4[8:1],,8-6[8:1],,3-5[8:1],,1<5[4:1],
,5x<8[4:1],,8<5[4:1],,5<8[4:1],,8<5[4:1],
,5<8[4:1],,8,,5,,3,
4/2,2,{16}3,4,3,4,{8}3,3,{16}2,8,2,8,
{8}2,{16}1,8,{8}1,{16}2,7,{8}2,{16}3,6,{4}3,
{16}4,5,4,5,3,6,3,6,2,7,2,7,1,8,1,8,
{8}7b/2b,{16}6,5,{8}6,7-4[8:1],,7/8,{4}2,
3/4x<8[4:1],{8}8<4[4:1],2,{4}4<8[4:1],8,
{8}3,{16}2,1,2,8x,7x,2,3,7,{8}6,{4}5/4,
{8}4/5,3,2/5,1>5[4:1],,5x>1[4:1],,1>5[4:1],
,5>1[4:1],,1>5[4:1],,5,,1,
7-5[8:1],8,7/3-1[8:1],4,3/7-5[8:1],8,2/7,3,
{16}4,4,4,4,{8}4,5/3,{4}2/6,{16}8,8,{8}8,
7/1,2/8,{4}7/1,1,1,
{16}1,8,{8}1,{16}1,7,{8}1,{16}1,6,{8}1,{16}1,5,{8}1,
{12}1x-7[8:1],2x,3x,4x-6[8:1],3x,2x,1x-7[8:1],2x,3x,4x,3x,2x,
1x/5x-3[8:1],6x,7x,8x-2[8:1],7x,6x,5x-3[8:1],6x,7x,8x,7x,6x,
5x/1x-7[8:1],2x,3x,4x-6[8:1],3x,2x,1x-7[8:1],2x,3x,4x,3x,2x,
1x/5x-3[8:1],6x,7x,8x-2[8:1],7x,6x,5x-3[8:1],6x,7x,8x,7x,6x,
{8}5x/2x,2,1/6,1,7/8,8,1,1,
2/7,7,6/3,6,{16}4,5,4,5,{8}4,4,
3/6,6/3,2/7,2/7,1/8,{16}2,3,,7,{8}6,
{1}4b>5[2:1],
{4}4xh[8:1]/2h[8:1],{16}3,3,3,3,{8}3,5/3,{16}4,4,4,4,
{8}4,5,{16}3b,2,{8}1,{16}7b,6,{8}5,{16}2b,3,{8}4,
8/2,{16}1,1,1,1,{8}1,3/1,{16}2,2,2,2,{8}2,
8,7,{16}1b,2,{8}3,{16}8b,7,{8}6,{16}2b,3,{8}4,
,1/7,{16}8,8,8,8,{8}8,7/1,{16}8,8,8,8,
{8}8,1,{16}8b,7,{8}6,{16}1b,2,{8}3,{16}7b,6,{8}5,
4/6,{16}5,5,5,5,{8}5,6/8,{16}7,7,7,7,{8}7,
6,7/5,{16}6,6,6,6,6,6,6,6,6,6,{8}6,
2,5/3,{16}4,4,4,4,{8}4,8/2,{16}1,1,1,1,
{8}1,2,{16}8b,7,6,5,1b,2,3,4,7b,6,5,4,
,,{8}5/7,{16}6,6,6,6,{8}6,6/8,{16}7,7,7,7,
{8}7,8,{16}1b,2,3,4,8b,7,6,5,2b,3,4,5,
,,{8}2/8,{16}1,1,1,1,{8}1,4/2,{16}3,3,3,3,
{8}3,8/2,{16}1,1,1,1,1,1,1,1,1,1,1,1,
{8}1,2/8,{16}1,1,1,1,{8}1,2/8,{16}1,1,1,1,
{8}1,2/8,{16}1,1,1,1,1,1,1,1,1w5[8:1],1,1,1,
{4}1,2x>5[4:1],,8<4[4:1],
,1>5[4:1],,1<2[2:1],
{8},,,,,,1q4[2:1],1,
,,,,,,,,{4}7-5[8:1],
{8}7/1,2-4[8:1],,2/8,{4}7-3[8:1],
{8}1/7,2-5[8:1],,2/1,{4}8,4<8[4:1],
{8}8>6[8:3],,,6<4[8:3],,,{4}4<2[8:3],
{8},8x,,8x-4b[8:1],,C,,,{4}1/2-4[8:1],
2,1/8-6[8:1],8,
1/2>5[8:1],2,1/8<5[8:1],8q3[2:1],
{8},,,,,8qq5[2:1],,8,
,,,,,,,,5/4,
4,5,6,3,2,6,7,
{4}1-5[8:1],1,8/7-4[8:1],7,
{24}1/3,,,,,2/4,,,,{8}3/5,{16}4,4,4,4,{4}4,
{16}5,5,5,5,{8}5,4,{16},,4,4,4,4,{8}4,
2/6,{16}1,7,{8}8,8,,8,{4}6/2,
{1}7v4<7[2:1]/3v8>3[2:1],
{4}1/7,1-5[8:1],1/8,{8}1-4[8:1],7,
1,8,1-4[8:1],8,{16}1x/E8,B7,B6,E6,{8}4xp8>3[2:1],4x,
{4}4x/5x,7x,{8},,8,8,
7,6,{16}B1,B8,B7,B6,B5,B4,B3,B2,{8}7x,6x,
{4}5>2[4:1],6/5,{8},,1,1,
{4}6/8,8/2,{8}7/1,8/2,{16}3x/7x,4x/6x,,,{8}5>2[4:1],
4,{4}5/6,{16},,,,,,,,8/1,
,,2/7,{8}6/3,5x/4x,4x-8[8:1],3,{4}4/2,
1,{8}1,8/2,,8,{4}1/7,
{8}5,4/7,,4,5/2,1,1,1,
1,3/8,,8,{4}6/1,{8}6,5/3,
,2,{16}3/4,,,7,,,{8}6/2,3,5/4>6[4:5],
4,{16}B5,B6,B7,B8,{8}E1,{4}B1/B8/E1,C,
{16},,,,,,,,1xp5[8:1],2x,{8}3x,{4}1b,
3,3/4,5/6,3/4,
6/5,4/3,{8}6/5,4,{4}3/6b,
5/2,4/7,{8}5/2,6,{4}7/3b,
{8}7/3,2,{4}1/5b,3/7,5/1-3[8:1],
1/7-5[8:1],7/2-4[8:1],2/8-6[8:1],8/1,
{16}8/3,,,1/6,,,{8}7/2,1/8,1/8,{16}1,2,8,7,
2,3,7,6,3,4,6,5x,4x,5x,5x,5x,5x,5x,5x,5x,
5x,5x,5x,5x,5x,5x,5x,5x,5x,5x,5x,5x,5x,5x,5x,5x,
{8}4x/5xh[4:7],2x,8x,2x,{16}B3,,,B1,,,{8}B7,
{4}C,{16}1x,2x,{8}3x,B2,B3,{4}E4,
{16}6,4,5,3,4,2,,,1,8,2,7,{8}3,{16}4-2[8:1],5,
{8}4,4b,{16}8,7,{8}6,{16}3b,4,5,6,7,8,1/5x,2/6x,
{8}3/7x,4,7b/5,7,{16}2b,3,{8}4,{16}8b,7,{8}6,
{16}4,4,{8}4,{16}5,5,{8}5,{16}4,4,{8}4,{16}5,5,{8}5,
{16}4b,5,3,6,{8}2,{16}5b,4,6,3,{8}7,{16}6b,3,7,2,
{8}8,{16}3b,6,2,7,{8}1,1/8,{16}1,2,8,7,2,3,
7,6,1,2,8b,7,6,5,8/4,1,2,3,{32}7b,6,5,4,3,2,1,8,
{16}7x/3x,4x/6x,{8}5x,{16}5b,,,7/3,,2/8,,1,,1,,8/2,
7/3,4,5,3,6,2,,,8,1,7,2,{8}6,{16}5-7[8:1],4,
{8}5,5b,{16}1b,2,{8}3,{16}6b,5,4,3,2,1,8/4x,7/3x,
{8}6/2x,5,2/4,2,{16}7b,6,{8}5,{16}1b,2,{8}3,
{16}5,5,{8}5,{16}4,4,{8}4,{16}5,5,{8}5,{16}4,4,{8}4,
{16}5b,4,6,3,{8}7,{16}4b,5,3,6,{8}2,{16}6b,3,7,2,
{8}8,{16}3b,6,2,7,{8}1,1/8,{16}1,A1,8,A8,2,A2,
7,7x,1,1x,7,7x,1,1x,7,7x,1,1x,7,7x,1,1x,
7,7x,A1,B1,A7,B7,A2,B2,A6,B6,,,{4}C/E6/E8/E2/E4,
{16}2x,2x,7,7,1,1,8,8,2,2,7,7,1,1,8,8,
2,2,7,7,1,1,8,8,2,2,7,7,1,1,8,8,
2,2,7,7,1,1,8,8,2,2,7,7,1,1,8,8,
2,2,7,7,1,1,8,8,2,2,7,7,1,1,8,8,
2,2,7,7,1,1,8,8,2,2,7,7,1,1,8,8,
2,2,7,7,1,1,8,8,2,2,7,7,1,1,8,8,
2,2,7,7,1,1,8,8,2,2,7,7,1,1,8,8,
2,2,7,7,1,1,8,8,2,2,{48},,,,,,{12}8x,7x/1x,6x/2x,
{16}5x/3x,3x,6x,6x,2,2,7,7,3,3,6,6x,2,2,7,7x,
1,1,8,8,2,2,8,8,1b,1,1,1,2,2,7,7,
8b,8,8,8,2,2,8,8,1b,1,1,1,2,2,7,7,
8b,8,8,8,2,2,8,8,1b,1,1,1,2,2,7,7,
8b,8,8,8,2,2,8,8,1b,1,1,1,2,2,7,7,
8b,8,8,8,2,2,8,8,1b,1,1,1,2,2,7,7,
8b,8,8,8,2,2,8,8,1b,1,1,1,2,2,7,7,
8b,8,8,8,2,2,8,8,{64}A1/A8,D2/D8,A2/A7,D3/D7,A3/A6,D4/D6,{32}A4/A5,,,,,,,,,{16}6,6,
4,4,5,5,3,3,7,7,2,2,8,8,1,1,8,8,
1,1,7,7,1,1,7,7,1b,1,7b,7,1b,1,7b,7,
2,2,6,6,2,2,6,6,2b,2,6b,6,2b,2,6b,6,
3b,3,7b,7,3b,3,7b,7,4b,4,8b-4[8:1],8,4bw8[8:1],4,8b,8,
E
