&title=Avant Raze
&artist=Sampling Masters MEGA
&first=0
&des=
&des_5=KAMINSKI
&lv_5=14
&inote_5=(200){4}
,,,,3h[4:3],
B7,C,B3,
4h[4:3],B1,C,B5,
1/8,B7/B2,4/5,B6/B3,
4/3,B3/B4,5/6,{16}B7/B5,B6,B8,C,
{4}5h[4:3]/B1f,{8}4,4,4,4,{4},7h[4:3],
{8}5,5,5,5,{4},{8}5/Cfh[4:3],
5,5,5,6,7,{4}8,
{8}3,4,5,6,7,8,7,8,
7-4[8:1],7,8-3[8:1],8,{4},{8}1-5[8:1],1,
2-4[8:1],2,{4},{8}1<5[4:1],4,3,2,
1v6[4:1],4,3,2,2,3,4,5,
6,7,8>3[4:1],4,5,5,{4}5h[4:3],
1,3,{8},4,{4}4,
7h[4:3],1,{8}3,{4},{8}5,
4,3,{4}3,{8}5/6,4,5/6,4,
{4}5/6,{16}1b,2,3,4,5b,6,7,8,{4}1h[8:5],
{8}5,6,{4}7,,{8}3h[2:1],5,
6b,7,{4},{8}4,4h[8:1],5,5h[8:1],
6,6h[8:1],7,7h[8:1],8,8h[8:1],1,1h[8:1],
,1,2,3,{16}4bx,5,6,7,8,1,2,3,
4,5,{8}6,{2},{8}3/5,4,
5/3x-6-4[8:1],1,{4}3,{8}7x-5-8[8:1],8,{4}7,
{8}3x-1-4[8:1],5,{4}3,{8}7x-5-8[8:1],5,{4}7,
3h[1:1],{8}4,5,6,7,{4}8,
8h[4:3],{8}6,5,4,3,{4}2,
{8}8-6>5[8:1],4,8-2>3[8:1],4,8<7-5[8:1],4,8>1-3[8:1],4,
8-6[8:1],4,8-2b[8:1],4h[8:3],{2}8bh,
{8}Ch[4:3],6,6,6,{2}6h[4:1],
{8}Cfh[4:3],3,3,3,3,3,3,2,
{1}1bqq8v5[4:3],
{2},{4}7h[8:1],6bh[8:1],
{1}5bqq4<7>1[4:3],
{2},{4}B7/B6,B2/B3,
{2}7b-5[8:1],2b-4[8:1],
7b-4[8:1],2b-5[8:1],
{4}6/8,5/7,4/6,4/6,
{16}4bx,6,4,6,4bx,6,4,6,4bx,6,4,6,4x,6x,7x,8x,
{4}1x,4h[8:1],{8}8b,8b,{4}4h[8:1],
{8}8b,4h[8:1],,8b,{2}8b/4h[4:1],
{8}4b-1[2:1],5,5,6,6,7,{4}7,
{2}2h[4:1]/8-5[2:1],{4}3b,3b,
8-5[16:1],8/1-4[16:1],{8}1/8-5[8:1],7,8/1-4[8:1],2,
1,8h[8:5],2,3,{2}4,
{16}4/3bxh[2:1],5,6,7,8,1,{8},{4}2-6[8:1],2b,
8bxh[2:1],{8}4,6,{4}1-5[8:1],1b,
Cf,{8}3,3,4,4,5-1[8:1],5,
6-8[8:1],6,2-6[8:1],2,3-5[8:1],3,{4}7v4[8:1],
7b,5h[8:1],5h[8:1],6h[8:1],
7h[8:1],8h[8:1],{8}4,4,4,4,
{2}6h[4:1]/4b>1[8:1],{8}6,6,6,7,
7,7,7,7,8,8,8,8,
8b-5[8:1],7,8,1-4[8:1],2,1,7-4[8:1],8,
7,3-1[8:1],2,3-5[8:1],,{24}3x,6x,,{12}7x,8x,1x,
{4}2bx-6[2:1],{2},{8}4bx,4bx,
{4}4bx-2q7[2:1],{2},{8}1bx,1bx,
{2}1bxq5[4:1],2bx,
2bx/6bx,{4}3bx/5bx,{16}4,4,4,4,
{4}4b,{2},{8}3b,4b,
{4}5b,{2},{8}4<8[4:1],4,
{4}8V24[4:1],{8}4V68[4:1],4,,3,3,3,
4,4,{16}4,4,4,4,{4}4,Cf/B8/B1/B5/B4,
{8}4/5,5,4/2,2,4/5,5,2/4,2,
5/4,6,{4}4h[4:1]/5h[8:1],{8},5/6,6,7/8,
8,6/5,6,7/8,7,4/6,3,4/6,
7,4/6,3,4/6,7,6,3,2,
{4}4h[8:1]/1b-7[8:1],5h[8:1]/1-3[8:1],4h[8:1]/1-7[8:1],5h[8:1]/1-3[8:1],
4h[8:1]/1-6[8:1],1/5h[8:1],{8}2,3,4,1,
2,3,4h[8:5],5,6,7,{4}8,
{16}4x,5,4,5,4,5,3,6,3,6,3,6,2,7,2,7,
{1}1b>5[1:1],
5<1[1:1],
1>5[1:1],
7h[1:1],
{8},1,2,3,4,5,6,7,
8h[8:7],B7,B6,B5,B4,B3,B2,1,
{4}4<1[2:1],4b,{2},{16}1x,
2,3,5x,6,7,4x,3,2,8x,7,6,4bx,3,2,8bx,
7,6,5,4,{4}3/Cfh[2:3],{1},{2},{4}5-1[8:1]/2-4[8:1],
5-7[8:1],5-3b[8:1],2-8[8:1],
2-4[8:1]/7v4[8:1],7-5[8:1],{2}7-4b[8:1],
{4}8-3[8:1],8-4[8:1]/7-5[8:1],{2}7-4[8:1],
{8}2/6,2/6,3/7,3/7,4/8,4/8,{16}4b/8b,5,6,7,
{4}8V61[4:1],1V35[4:1],5V72[4:1],2>5b[4:1],
5V71[4:1],1V75[4:1],5-2-4[4:1],4-7b[4:1],
7V13[4:1],3V57[4:1],{2}7-3[8:1],
{8}5/7,6/8,1/7,2/8,{4}1/3,1bx,
5xh[4:7],{8}B8,E3,B6,C,B4,E7,
B1,B5,E4,C,B7,B2,,6x,
{4}7x,{8}8/2,5x,2/8,5x,3/7,5x,
4/6,5,5,4/6,5,5,{16}5,6,7,8,
{4}1,{8}3-8[16:1],3,4-1[16:1],4,6-3[8:1],6,
7-2[8:1],7,8-4[8:1],8,1-3[8:1],1,{4}5>1[8:1],
5b,{8}8b,8,7/8,8,6/8,8,
{16}5/8,{8},{16}2/6b,{8},4b/7,{16},1/3b,,5b/8,{8},{16}3/6b,4,
{4}5,{8}1/8-5[16:1],1,8/1,1,1/8-5[16:1],1,
8/1,1,1/8-5[16:1],7,1/8b-4[16:1],2,1/8bv5[16:1],1,
{4}8b/1,{8}4b-2[8:1],2b-4[8:1],{2}4bV68[8:1],
{16}4x,4x,4x,4x,2b,5x,5x,5x,7b,4x,4x,4x,2b,5,6,7,
{4}8b,{8}5/6,4/6,6/3,6/2,{16}6x,5,{8}4,
5x,4x/6x,5x,3x/7x,5,3/7,4b/6,{16}2b/8,3/7b,
{4}4b/6,{16}2x,2,2,2,1x,1,1,1,8bx,8,8,8,
8,{8},{16}7/6,{8},1/3,{16},4/8,{8},{16}3/1,{8},{16}2/6,
,Cf,{8}1b>8V24V68q1[8:17],
