&title=WATER
&artist=A-39; 沙包P; 初音未来
&first=0.04
&des=圧力 対流 窒息 目眩
&clock_count=4
&lv_5=13+
&inote_5=(170)
{1},,1p8[4:5]/8h,,1p8[4:5]/7h,,1p8[4:5]/6h,,1p8[4:5]/5h,
{8},,,,7h[8:1],,8h[8:1],,
{4}1p8[4:3]/2,,3,3<6[8:3],,7,8h[4:2],,
{4}1p8[4:3],
{8},7,7,,,,
{2}6>3[8:3],2h[2:1],
{4}1p8[4:3],,3,3<6[16:5],,7h[4:3],6,,
{1}1p8[4:6],,
{1}3h[1:1],5h[1:1],1h[1:1],
{4}7p6[8:4],,4,4,
{8}5/6,4,,4,3/5,,6,,2/5,3,5,4,3/5,6,3/7,4,
{8}6,6,4,4,5,5,3,3,
{4}4,4,4w8[8:1],4,
{16}3/5,,,4,5,,4/6,,3/7,,,5,4,,5/3,,
{16}2/6,,,4,5,,4/6,,3/7,,2,,1/5,,6,,
{16}3/7,,,4,5,,3/7,,4/6,,,5,4,,2/6,,
{16}5/3,,,4,5,,3/7,,4/6,,2,,3/5,,7,,
{16}2/8,,,1,8,,1/7,,2/6,,,8,1,,8/2,,
{16}3/7,,,1,8,,1/7,,2/6,,3,,4/8,,7,,
{16}2/6,,,1,8,,2/6,,1/7,,,8,1,,3/7,,
{16}8/2,,,1,8,,2/6,,1/7,,3,,2/8,,7,6,
{16}5/2-8[8:1],,,4,2,,5,,3-7[8:1],,,5,3,,4,,
{16}2-8[8:1],,,4,2,,5,,8/6,,7,,1/8,,2,,
{16}7-1[8:1],,,3,7,,4,,6-2[8:1],,,4,6,,5,,
{16}7-1[8:1],,,4,7,,3,,1/3,,2,,1/8,,7,,
{16}1-7[8:1],,,6,1,,6,,2-6[8:1],,,5,2,,5,,
{16}3-5[8:1],,,6,3,,6,,4/7,,6,,3/5,,2,,
{16}6-4[8:1],,,3,6,,3,,7-3[8:1],,,2,7,,2,,
{8}8-2[8:1],1-5[8:1],,,
{8}8,7,3,2,
{4}1/5,7/3,6/2,8/4,7/3,5/1,8/4,6/2,
{4}8/4,7/3,5h[8:1]/1h[8:1],7h[8:1]/3h[8:1],8/4,7/3,6/2,
{8}1/5,2/6,
{4}3/7,6/4,5/3,1/7,2/8,3/7,1/5,2/6,4/8,1/5,2/4h[8:1],6h[8:1]/8,
{4}1/3h[8:1],5/7h[8:1],2/6,
{16}3/7,,4,5,
{8}3>8[8:1],,3/7,6,5-7[8:1],,5/1,,3>8[8:1],,3/7,,5-7[8:1],,5/1,,
{8}2>5[8:1],,6/2,,8-6[8:1],,8/4,3,2>5[8:1],,2/6,,8-6[8:1],,8/4,3,
{8}2<7[8:1],,2/6,5,4-6[8:1],,8/4,,2<7[8:1],,2/6,5,4-6[8:1],,4/1p8[4:4],,
{1}6h[4:11],,
{4}5h[32:1],4h[32:1],3h[32:1],2h[32:1],
{4}1h[4:3]/8h[32:1],7h[32:1],
{8}6h[32:1],5,5h[4:1],,
{24}2b,3,4,5,6,7,8,1,2,3,4,5,
{4}6>8[4:1]/8,7,5h[4:1],7>5[4:1],
{8}5,6,7h[4:1],,
{24}3b,2,1,8,7,6,5,4,3,2,1,8,
{8}7>5[4:1]/5,,5,6,
{4}7h[4:1],6-2[8:1],8h[4:1],4h[4:1],
{24}6b,7,8,1,2,3,4,5,6,7,8,1,
{4}2<4[4:1]/4,3,1h[4:1],3<1[4:1],2,4h[4:1],
{24}8b,7,6,5,4,3,2,1,8,7,6,5,
{8}4<2[4:1]/2,,2,3,4>7[4:1],,7,6,5h[8:4],,7,,
{24}8b,1,2,3,4,5,6,7,8,1,2,3,
{4}4>7[4:1]/8,7>4[4:1],5,
{8}6,6,7/5h[4:1],,6h[4:1],,
{24}3b,2,1,8,7,6,5,4,3,2,1,8,
{8}7>4[4:1]/5,,4>7[4:1],5,
{4}6,5h[2:1],6,1h[4:1],
{24}8b,7,6,5,4,3,2,1,8,7,6,5,
{4}4<1[4:1]/2,1<4[4:1],3,2h[4:1],3-7[16:3],,
{2}1p8[4:3],,1p8[4:2],
{8},4,4,,
{8}3b/5b,2,3/5,6,4,3/5,2/6,7,4,5/3,2/6,7,4,3/5,2/6,
{16}7,6,
{8}5/3>8[8:1],3,6,5,2,4/6,7/3,5,2,4/6,7/3,5,2,4/6,3/7,1,
{8}8<6[8:1],1,8/2,4,2>4[8:1],1,2/6,5,
{8}7<5[8:1],8,7/3,2,3>1[8:1],4,3/6,
{16}7,6,
{8}5/3>8[8:1],,3/5,4,2,3/5,3/5,2,4,3/5,3/5,4,2,3/5,2>5[8:1]/6,7/1,
{8}2b/8b,7,2/8,1,7,2/8,3/7,1,6,2/8,3/7,6,1,2/8,3/7,
{16}1,2,
{8}3/5<8[8:1],5,2,3,8,1/7,2/6,8,3,1/7,2/6,3,8,1/7,2/6,5,
{8}2<8[8:1],3,2/4,5,7<5[8:1],8,1/7,2,
{8}4>2[8:1],5,4/6,7,5<7[8:1],4,5/3,
{16}1,2,
{1}3/5p4[4:3],1p8[4:3],
{2}7qq5[4:6],1h,2h,3h,2pp4[4:6],8h,7h,6h,7qq5[4:6],1h,2h,3h,2pp4[4:6],8h,7h,6h,
{4}8<5[4:3],1,2,3,1>4[4:3],8,7,6,8<5[4:3],2,3,4,1>4[4:3],7,6,5,
{4}7<5[8:4],2,3,4,2>4[8:4],7,6,5,6>4[8:4],2,2,3,3<5[8:4],7,7,6,
{12}6h,5h,4h,3h,
