&title=Daisycutter
&artist=ETIA.
&first=0.1
&des=killermatt
&lv_6=14
&inote_6=(191){1},
{8}3,3,34,3,5,,3/6,,
{8}1,1,7h[4:1],5,5,6h[4:1],1,1,
{8}7,7,78,7,1,,21,,
{16}83,,4,4,5,,2h[8:5]/6,,,,7,,7,,7,,
{8}6,6,65,6,4,,6/3,,
{8}8,8,2h[4:1],4,4,3h[4:1],8,8,
{8}2,2,21,2,8>5[4:1],,78,,
{16}6b,,4,7,3,8,2,1,E3/B3,E1/B1,E5/B5,E7/B7,Cf,,,,
{4}1>4[8:1],1<6[8:1]/8,1-5b[8:1]/2,18,
{8}7,7,E4h[4:1],2,2,E6hf[8:1],8b,,
3,3,E8h[4:1],6,6,E2h[8:1],4,4,
4,{16}6,5,,3,4,,2,1,3,8,4,7,3,,
{8}6<3[4:3],6,4,4,5,5,4,4,
6<3b[4:3],6,4,4,5,5,4,4,
6<1[8:1],5,4,3-6[8:1],2,1,8-4b[8:1],7,
E7f/B6h[8:7]/B7h[4:3],,,,,,,,
1-5-2b[4:1],6-1[8:1],1V74[4:1],6,,3-8[8:1],,3,
{16}7h[8:1],,,7h[8:1],2>5[8:1],,7h[8:1],,E3/A2/D3,,,,E1,B8,B7,E7,
{8}2,2h[8:1],5h[4:1],4,4h[8:1],1h[4:1],2,2h[4:1],4,4h[4:1],,5-2-6[4:1],,7,7b,,
8-4-7b[4:1],3-8[8:1],8V25[4:1],3,,6-1[8:1],,6,
{16}2h[8:1],,,2h[8:1],7<4[8:1],,2h[8:1],,E7/A7/D7,,,,E1,B1,B2,E3,
{8}7,7h[8:1],4h[4:1],5,5h[8:1],8h[4:1],7h[4:1],,
6>3[8:1],,{16}1,8,7,6,51,,24,,68,,45,,
{8}3-8b[8:1],7-3[8:1],3-6[8:1],7,,1-4[8:1],,18,
{16}8-5[8:1],,,6,8,,1,,2>5[8:1]/4h[4:1],,,,E3,E4,E5,,
{8}8,8h[8:1],B7h[4:1],4,4h[8:1],B2h[4:1],8,8,
{16}17,,26,3x/5x,,37,4x/6x,,2,8,3,7,4,6,5,,
{8}6-1b[8:1],2-6[8:1],6-3[8:1],2,,8-5[8:1],,81,
{16}1-4[8:1],,,3,1,,8,,7/5h[4:1],,,,1,2,3,4,
5xb/1b,62,37,48,1,2,3,4,{32}35,2,1,8,7,6,5,4,{8}3b-8[8:1]/7b-4[8:1],,
3b/7b,,1b/5b,2b>5b[8:1]/6b<1b[8:1],,2b/6b,,{32}4b/8b,E4/E8,B7/B3,B2/B6,
{1}E2f/E6h[1:2],,E4h[1:1],{8}5,,4,3/6,,5,3/6,,
8b/4bh[8:3],,7,5h[8:3],,8,4h[8:3],,7,5h[8:3],,6,4h[8:2],,8,,
1/5h[8:3],,2,4h[8:3],,1,5h[8:3],,2,4h[8:3],,3,5h[8:2],,1,,
2/E5h[8:3],,6,E3h[8:3],,8,E6h[8:3],,7,E4h[8:3],,1,E7h[4:1],,5,,
7/E5h[8:3],,3,E7h[8:3],,1,E4h[8:3],,2,E6h[8:3],,8,E3h[8:2],,4h[4:1],,
8-3[8:1],7-4[8:1],8-5-2[4:1],7,,,1,,
7,8-6[8:1],,8,1-5[8:1],,1,2,
1-6[8:1],2-5[8:1],1-4-7[4:1],2,,,8,,
{16}16,,3,34,,6,5V38[4:1]/6,,,,{8}7,6,5,
4-7[8:1],1-5[8:1],4,1,8h[4:1],,6,,
2,1-3b[8:1],,1,8-4b[8:1],,8,7,
5-2[8:1],8-4[8:1],5,8,1h[4:1],,3,,
2b-5[8:1]/8hb[4:1],,,,7b-4b[8:1]/1hb[4:1],,,,
{4}3>5[4:7],4,4,4,4,4,4,4,
4>6b[4:7],5,5,5,5,5,5,5,
{8}4b,3,2,1,8,7,6,5,
{16}4b,5,6,7,8,1,2,3,4,5,6,7,8,1,2,3,{32}4b,3,2,1,8,7,6,5,4,3,2,1,8,7,6,5,4/B4,B5,B6,B7,B8,B1,B2,B3,E4,E5,E6,E7,E8,E1,E2,E3,
{4}E4h[4:3]/5h[4:1],,8-4[8:1],8b,
{16}1b/8b,,1b/8b,,,24,,,36,,57,,,38,,,1-5[8:1]/6,,,,1,7,,,2>4[8:1]/8<6[8:1],,,,2b/8b,,,,
8b/1b,,8b/1b,,,75,,,63,,42,,,61,,,57,,38,,,25,,,1b,6b,4b,8b,3b,5b,2b,7b,
Ch[8:1],,,,1b/8b,,,,26,,35,,,46,,,3/7-4[8:1],,,,7,1,,,2-7[8:1]/6-3[8:1],,,,Cf,,,,
{16}2b,8,1,8,1,7b,1,8,C,8,2b,8,1,7b,1,8,
{24}2,1,8,7,6,5,41,8,7,6,5,4,{16}2,3,2,3,2h[4:1],,,,
1-5[8:1],,3,,1,3,,,4-8[8:1],2,,2,4,,3,,
6,5,7,4,8,3,1,2,4v1[8:1]*v7[8:1],,35,,4b,,,,
8-4[8:1],,6,,8,6,,,5-1[8:1],7,,7,5,,6,,
28,,3,,4>6<4b[4:2],6,,,5h[4:2],,,,,,,,
,,,,{32}2b/7b,36,,,{16},,4/8V25[4:1],,7,,8,3,,,
1-4-6[4:1],,8,,1,7,,,8,,27,,45,36,,,
1/2>5[8:1],,38,,2,1,,,8/7<4[8:1],,16,,7,8,,,
Ch[4:2],,,,,,,,,,,,1b/8b,,,,
2/D5h[4:7]/B5/B4/E5f,,,,7,,,B5/B4/2,,,B5/B4/2,,B5/B4/2,,,B5/B4/7,,,B5/B4/7,,B5/B4/7,,,B5/B4/2,,,B5/B4/2,,{32}B5/B4/2b,C,E1,D1,{16},,
7/D5h[4:6]/B4/B5/E5f,,,,2,,,B4/B5/7,,,B4/B5/7,,B4/B5/7,,,B4/B5/2,,,B4/B5/2,,B4/B5/2,,,B4/B5/7,7,,3,3,,6,6,,
E2/A1f,,,,48,,,3h[16:3]/7,,,5,,1,,,6h[16:3]/2,,,4,,8,,,3h[16:3]/7,,,1,,B5f/A5,,,,
26,,,,71,,,56,,3,4,,12,,7,8,
6bh[4:1],,,,2bh[4:1],,,,8b-4b[8:1],,,5,8b,,1,,
8/2h[8:1],,8,,6h[8:1]/8,,,8,2h[8:1],4,,,6h[8:1]/4,,,4,2h[8:1],8,,,6h[8:1]/8,,,8,2h[8:1],4,4,,35,,,,
1/7h[8:1],,1,,3h[8:1]/1,,,1,7h[8:1],5,,,3h[8:1]/5,,,5,7h[8:1],1,,,3h[8:1]/1,,,1,7b,5b,1b,3b,Cf,,,,
28,,,,56,,,8,4h[4:1],,B2/E3,,B6/E7,,,,
71,,,,43,,,1,5h[4:1],,B7/E7,,B3/E3,,,,
4,5,2,5,8,5,6,5,4,3,4,1,4,7,4,5,
{24}4b,5,6,7,8,1,2/6b,3,4,5,6,7,8/4b,3,2,1,8,7,6/2b,5,4,3,2,1,
{32}E4f/B3/8,B4,B5,E6,
