&title=Welcome, Queen of Fiction.
&artist=打打だいず
&first=0
&des=姐就是女王
&lv_5=14+
&inote_5=(131)
{1},
{4},,
{24}3x,7x,3x,7x,3x,7x,3x,7x,3x,7x,3x,7x,3x,7x,3x,7x,3x,7x,3x,7x,3x,7x,3x,7x,2x,8x,2x,8x,2x,8x,2x,8x,2x,8x,2x,8x,
{8}E3,E7,E1,E5,
{8}Cf/2bv1V35-7[8:4],,,,5h[8:2],,,,7v6-1-4[8:3],,,,3h[8:2],,,,
{8}Cf/3bv4-2<7-5[8:4],,,,6h[8:2],,,,2b/E1f,7b/Cf,3b-5>4s8[8:3]/E5f,6bz2[8:2],
{8},,,,3b-1V75[8:2],,5<8V24[8:3],4,{16}3,,,4,,,5,,
{8}6-8V24[8:2],,4>1V75[8:3],5,{16}6,,,5,,,4,,
{24}2,6,2,6,2,6,2,6,2,6,2,6,1,7,1,7,1,7,1,7,1,7,1,7,8x,8x,8x,8x,8x,8x,8x-6-2-4[24:8],8x<7-1-5-3[24:7],8x,8x,8x,8x,
{8},,,,
{32}2/5,3,4,,{16}7>2[12:1],,,56,4-8[12:1]/7,,,3,24,,{24}2,1,2,1,3,,
{32}8/4,7,6,,{16}3<6[12:1],,,26,5-1[24:2]/3,,,7,58,,{24}7,8,7,8,6,,
{16}1bx,1bx,5h[16:1],8bx,5h[16:1],2bx,5h[16:1],7bx,5h[16:1],{32}3bx,4x,3x,4x,3x,,
{48}5b,6,7,8,1,2,3,4,5,6,7,8,{8}1b-5[8:4],,A8,A2,B7,B3,A6,A4,
{32}2x-5[12:1]/6x,,,,{16}1,,8-4[12:1],8,1,,2,,1,,{24}5,6,7,83,,,
{16}6-8[12:1]/2,,5,,3-1[12:1],3,4,,5h[8:1],,8,,61,,{32}2x,8x,2x,,
{32}7x-4[12:1]/3x,,,,{16}8,,1-5[12:1],1,8,,7,,8,,{24}4,3,2,16,,,
{16}7b/8b,7b/8b,,2b/4b,,7,1b/5b,,,,{32}2,1,8,7,6,5,4,3,27,,,,
{16}8h[16:1],2,7h[16:1],5,6h[16:1],1,5h[16:1],3,4h[16:1],2,5<8[12:1],3,4,,5/2,,
{16}1h[16:1],7,2h[16:1],4,3h[16:1],8,4h[16:1],6,5h[16:1],7,4>1[12:1],6,5,,4/7,,
{16}6h[16:1],8,5h[16:1],1,4h[16:1],2,1h[16:1],3,8h[16:1],4,7h[16:1],5,6x,4x,2x,8x,
{16}57,57,3,,14,14,6,,{32}7x/8xh[16:1],6,5,4,3,,1xh[16:1]/2x,3,4,5,6,,{8}8,{48}6x/3xqq6[8:5],E6,E5,E4,,,{8},,,,,,,,
{8}E1f/B1/B8/A1/A8/5b,,E7f/A6/B6/2b,8b/E4f/A4/B4,{16}2,6,,1b/Cf,,,
{16}8bh[16:1],5,6h[16:1],4,7h[16:1],5,6h[16:1],
{48}2,3,4,,,,1,2,3,,,,8,1,2,,,,7x,6x,5x,
{16}1bh[16:1],4,3h[16:1],5,2h[16:1],4,3h[16:1],
{48}7,6,5,,,,8,7,6,,,,1,8,7,,,,2x,3x,4x,
{16}8bh[16:1],5,6h[16:1],4,7h[16:1],5,6h[16:1],1h[16:1],5,3h[16:1],4,2h[16:1],5,
{48}1x,2x,3x,
{16}7bh[16:2],,{24}4,5,6,7,8,1,{16}2,{48}7,6,5h[16:1],,,,1,2,3h[16:1],,,,7,6,5h[16:1],,,,1,2,3,
{16}8bh[16:1],5,6h[16:1],2,4h[16:1],3,
2/6-3[12:1],1,8,7,63,,
{16}1bh[16:1],4,3-1[12:1],6,7-5[12:1]/4,,8-4[12:1]/3,,7,,8,,
{16}7x,6,5,4,3,2,
{16}7xh[16:1],6h[16:1],5h[16:1],4,3,2,
{16}7xh[16:1],6h[16:1],5h[16:1],4h[16:1],3h[16:1],2,1,,68,,57,,
{8}8b-2^3-5^6-8^1-3^4-6^7-1^2-4[8:9]/4b,,3x,2x,1x,8x,7x,6x,5x,4x,3x,2x,
(126)
{16}1b,5,3,7,5h[8:1],,
(121)
{16}8b,4,6,2,4h[8:1],,
(106)
{16}3b,2,1,8,7,6,
(95)
{8}1bxh[8:1],3xh[8:1],5xh[8:1],
(77.333333333)
{12}7b<4[10:1],7,7,8-4[10:1]/7,8,8,
{12}8/2>5[10:1],2,2,1-5[10:1]/2,1,1,
{12}1/7qq8[12:2],7,7,78,1,2>5[12:1],5qq6[12:2],8,2,6,,,
{12}5/7>2[10:1],7,7,7/4p8[10:1],4,4,
{12}4/2<7[10:1],2,2,2/5q1[10:1],5,5,
{12}5/6>3[12:1],7,8,6/1<6[12:1],2,3,4-8b[16:1]/1b,,,4b/8w4[16:1],,,
(130)
{48}8bv3V17-5[8:4],Cf,B2/B3/B6/B7/E3/E7,,,,,,,,,,{8},,,,,,
{8}2v5V31<6[8:4],,6,7,8h[8:2],,,,
(135)
{8}7bv4V68-2[8:4]/4b,,1,2,3h[8:2],,,,
{8}2h[8:1],4h[8:1],5h[8:1],7,{24}4,8p3[10:1],4p7[12:1],8,,,{8},,
(140)
{8}1bh[8:1],4,2h[8:1]/6,7,8h[8:1]/4,{16}5,5,7-4[12:1],,56,,
{8}1bh[8:1]/7b,,6h[8:1]/3,2,1h[8:1]/5,{16}4,4,8-4[12:1],,56,,
(145)
{8}2b/8b,,1h[8:1],2h[8:1],3h[8:1],4h[8:1],5h[8:1],6h[8:1],
(150)
{16}3h[16:1],4h[16:1],2h[16:1],6h[16:1],5h[16:1],7h[16:1],
{16}3h[16:1],5h[16:1],1h[16:1],6h[16:1],4h[16:1],8h[16:1],
{16}2,7x/3x,7x/3x,,
{16}2,2,4,4,6,6,8,8,
{32}2,3,4,5,6,7,8,1,26,7,8,1,2,3,4,5,
{12}2-8[12:1]/6-8[12:1],26,26,2b/6b`A8f,,,1-5[12:1]/2-5[12:1],12,12,1b/2b`A5f,,,
{16}5/6,4b/7b,,2/4,1b/5b,,2/6,8bV63[300#8:3]/4bV27[300#8:3],,,,,,,,,
(300)
{8}2b-5[8:1],,62,,8<5[8:1],4,8,2-7[8:1],,,4,,6/1,,{16}2,3,4,5,
{8}8-4[8:1],,48,,2-6[8:1],6,2,5<8[6:1],,,1,,3,,{16}41,8,7,6,
{8}2-6[8:1],,24,,5-7[8:1],8V24[8:2],5,8,,,8p4[6:1],,38,,2,,
{16}3b/8b,7/4,6/5,,,,6b/1b,2/5,3/4,,,,1b/8b,2/7-5s1[8:5],3>2-4z8[16:9]/6,,
{8},,,,,,,,
{8}7/1,,34,,26,2-5[6:1]/6-3[6:1],,2b/6b,
{8},,{16}E6,E7,E8,,E2,E3,E4,,C,,,,
{8}2/8,,3/4,,75,7-4[6:1]/5-1[6:1],,7b/5b,
{8},,{16}D2,D3,D4,,D8,D7,D6,,C,,,,
{8}78,,65,,24,24,,1,{16}5,6,7,8,2,3,4,5,6,7,8,1,26,37,48,,
{12},,,{6}73,73,73,51,51,5<8[7:1]/1>4[7:1],{8}51,,,,8-5[8:2],,
{8},,4bp1b[8:8],,,,,,,,,,,,,,
{8}C,,7b-4[8:1],,78,,2>5[8:1],5,2,6-2[8:1],,,4-1[8:1],,48,,{16}7,6,5,4,
{8}8>3[8:1],,86,,7-3[8:1],5,7,5-1[8:1],,,8-6[8:1]*-5[8:1],,8-2[8:1]*-3[8:1],,8,,
{8},,{16}6b/2b,73,84,,,,7b/3b,62,51,,,,7b/3b,6/2,51,8-3-6[8:3]/4-7-2[8:3],{8},,,,,,
{8}15,,37,,28,28,,34,,56,,78,1-4[8:1]/6-1[8:1],,16,,
{8}73,,15,,68,68,,27,,56,,34,2-5[8:1]/5-8[8:1],,25,,
{8}7h[8:1],4,6h[8:1],4,5h[8:1],3,,1b-7-2-6-3-5[8:8]/4h[8:7],,,,,,,,,
(140)
{8},8bv1[8:15],1,2,
(130)
{8}3,4,5,6,
(120)
{12}7x,8x,1x,2x,3x,4x,
(100)
{8}5x,
(90)
{8}6x,
(80)
{8}7x,
(70)
{8}8x,
(128)
{128},
{8}2bqq3-5[8:4]/Cf,,4,5,6h[8:2],,,,
(133)
{8}7qq8-2[8:4],,4,3,2-6[6:1],{24},,4x,,,,,,,
(138)
{8}3bpp2-8[8:4],,8,7,6h[8:2],,,,
(143)
{8}7b/E1f,2b/Cf,6b-4<5z1[8:3]/E5f,3bs7[8:2],,,,,
(148)
{128},,
{8}8b-4[10:1],73,{16}8>3[10:1],2,2,,8<5[10:1]/5,,4,4,8,,3,,
{8}2-6[10:1],15,{16}2<7[10:1],7,7,,2>5[10:1]/5,,6,6,2,,8,,
(153)
{16}7,5,6,5,8,5,7,5,1,5,8-5[12:1],5,2,5,8,,
{16}2,4,3,4,1,4,2,4,8,4,1-5[12:1],4,7,4,1,,
{24}8,7,6,1,8,7,2,1,8,3,2,1,4,3,2,5,4,3,6,5,4,7,6,5,
{1}4q5[8:4]/8q1[8:4],
{32},
{32}3,4,3,4,3,,,,6,5,6,5,6,,,,2q6[10:1],4v6[10:1],2,4,2,,,,B3f,,,,,,,,
{32}7,5,7,5,7,,,,2,4,2,4,2,,,,8p4[10:1],5p1[10:1],8,5,8,,,,Cf,,,,,,,,
{16}3,7,3,7,3,7,3,7,{24}26,15,84,3,2,1,
8,7,6,5p8[8:7],4q1[24:20],3,
(96)
{8}2b/7b,,,,,,
{8}3h[8:1],4,5,3/6,4,5,
(76)
{8}7h[8:1],5,4,26,5,4,
(110)
{4}3h[4:1],4h[4:1],5,
{32}4,5,4,5,4,5,4,5,4,5,4,5,4,5,4,5,4,5,4,5,4,5,4,5,Cf,
