&title=WARNING×WARNING×WARNING
&artist=暁Records
&first=0
&des=Fani-Fani-Fani-Funny!
&des_6=Fani-Fani-Fani-Funny!
&lv_6=13+
&inote_6=(172){4},,,,6-3[2:1],
{2},{4}1b,
5,3/7,,4/6,
5-1[8:1],{8}3,2-6[8:1],,7,{4}8b,
4h[8:1]/7h[8:1],4h[8:1]/7h[8:1],6/5>2[8:1],1qq5[8:3],
{2}1h[4:1],{4}3,6,
7/5,{8}4,3/5,,6,{4}7/3V58[4:1],
{2}1h[4:1],{8}1b,7,{4}5b,
2h[8:1]/4h[8:1],2h[8:1]/4h[8:1],5/1<6[8:1],5qq1[8:3],
{2}5h[4:1],{4}6,3/7,
{8}1-5[8:1],2,{4}3,{8}4-8[8:1],5,{4}7,
6-4[8:1],6/1,2-5[8:1],2/1,
{8}8b,8b-4[8:1],,8b/4b,,1b,1b,1b,
{4}2-4[8:1]/5-7[8:1],5v4[8:1],8,8,
{8}3/5,5,{4}2h[4:1],4h[4:1],3,
5/3h[4:1],4-1[8:1],2h[4:1],8,
6/4,3h[4:1],5h[4:1],8,
7-5[8:1]/4-2[8:1],4v5[8:1],1,1,
{8}7/4,7,{4}3h[4:1],5h[4:1],2,
4/6h[4:1],5-8[8:1],7h[4:1],1,
3/5,6h[4:1],4h[4:1],5,
7-5[8:1]/4-2[8:1],4v5[8:1],{8}1,1,7,7,
{4}4h[4:1],{8}6,7,{4}8-4[8:1],4,
3V51[4:1],8,{8}6,6,2,2,
{4}5h[4:1],{8}3,2,{4}1-5[8:1],5,
{2}4-2[8:1]/6-8[8:1],{8}3,3,8,8,
4-1[8:1],4,8-5[8:1],8,{2}3h[4:1],
{8}2h[4:1]/4h[4:1],{4},{8}3h[4:1]/5h[4:1],{4},{8},6,
{4}8-4[8:1],8w4[8:1],8,7/1,
{1}5/3bpp8[2:1],
{8}4/6qq1[2:1],{2},{8}2,{4},8/4qq8[2:1],
7,6,5,
{1}1/4pp8[2:1],
{4}6h[2:1]/4h[8:1],5h[8:1],{8}7,8,1,2,
{4}3h[2:1]/5h[8:1],4h[8:1],{8}1,8,7,6,
4/5h[2:1],4,6,6,8,1,2,3,
5/4h[2:1],5,2,2,{4}8-5[8:1],5,
4>1[8:1],8,5<8[8:1],1,
4>8[4:1],8<4[4:1],4,8,
3-1[8:1],7,6-8[8:1],1,
{16}3,7,3,7,2,6,2,6,{4}1b,{8}5,6,
7/1,4,2/8,5,{4}7<4[8:1]/3>8[8:1],3pp7[8:3],
{2}1h[4:1],{4}6/2,{8}3,2,
1-4[8:1],4,6,8-5[8:1],5,3,{4}1-4[8:1]*-6[8:1],
1,2/8,{8}7,6,4,3,
2/8,5,7/1,4,{4}2>5[8:1]/6<1[8:1],6qq2[8:3],
{2}8h[4:1],{4}7/3,{8}5,3,
2/8-4[8:1],7,{4}6,{8}3/5-1[8:1],6,{4}8-6[8:1],
2-4[8:1],8-6[8:1],2-4[8:1],8,
{8}7b,7b-3[8:1],,7b/3b,,2b,2b,2b,
{2}1/7qq4[8:3],3qq8[8:3],
{8}6pp5[8:3],,{4},{2}2pp1[8:3],
{4}8-6[8:1],5,2-4[8:1],5,
8<5[8:1],5,2>5[8:1],5,
{8}7/3,7,7/5,7,7/3,7,7/1,7,
{16}2,6,2,6,3,7,3,7,4,8,4,8,4,8,4,8,
{2}4bqq8[8:3],7bqq4[8:3],
{16}1b,{8},{16}2b,{8},3b,{4}1b/5b,{8}5,6,
7/1,4,2-4[8:1]/8-4[8:1],6,{4}2-6[8:1]/8-6[8:1],8/2>8[4:1],
{2}2/5h[4:1],{4}1/7,{8}3,2,
1-5[8:1],4,6,8-4[8:1],4,2,{4}1pp2[4:1]*qq8[4:1],
{2}1,{8}7,6,4,3,
2/8,5,1-5[8:1]/7-5[8:1],3,{4}1-3[8:1]/7-3[8:1],1/7<1[4:1],
{2}7/4h[4:1],{4}8/2,{8}5,6,
7/1p5[8:1],2,{4}3/1,{8}6/4q8[8:1],3,{4}4/1-3[8:1],
1/7-5[8:1],7/1-3[8:1],1/7-5[8:1],7/1,
{24}2b/8,3,{12}4,,{24}2b/8,3,{6}4,{24}2b/8,3,{12}4,,{4}1b/7b,
{8}2/8,5,7-5[8:1]/1-5[8:1],3,{4}1/7<1[16:3],6h[4:1],
{32}8,7,6,5,4,3,2,1,8,7,6,5,4,3,2,1,{4}8/5,{8}6,7,
8p4[8:1],5,3,1q5[8:1],5,7,{4}8<1[8:3]*>7[8:3],
{2}8,{8}2/6,3,5/4,6,
7/1,3,8-4[8:1]/2-4[8:1],6,{4}8/2>8[16:3],3h[4:1],
{32}1,2,3,4,5,6,7,8,1,2,3,4,5,6,7,8,{4}1/4,{8}4,3,
2/8-4[8:1],7,{4}6/8,{8}3/5-1[8:1],6,{4}5/8-6[8:1],
8/2-4[8:1],2/8-6[8:1],8/2-4[8:1],2/8,
{8}7b,7b-3[8:1],,7b/3b,,{16}2,4,2,4,2,4,
{4}1>4[8:1],6,8<5[8:1],2,
4-8[8:1],7,5-1[8:1],2,
4>1[8:1],8,5<8[8:1],2,
1-6[8:1]/6-1[8:1],1V74[4:1]/6V84[4:1],{2},{4}4>1[8:1],
8,{8}5<8[8:1],4,{4}2,
1>4[8:1],1/8<5[8:1],2/8,1-5[8:1],
1,8w4[8:1],8,1,
{8}2/6,2/6,{4}2/6,{2}1-3[8:1]/7-5[8:1],
2>4[8:1]/6<8[8:1],7<5[8:1]/3>1[8:1],
2-5[8:1]/6-1[8:1],4>1[8:1]/8<5[8:1],
8w4[8:1],1w5[8:1],
{8}2/8,2/8,{4}2/8,{2}5w1[8:1],
{8}6/4,6,5/3,3,6/4,6,5/3,3,
6/4,6,1/5,1,2/8,8/2,4/6,6,
3/7,3,3/1,3,3/7,3,3/5,3,
7/3,7,7/1,7,7/3,7,7/5,7,
7/3-6[8:1],3,1-5[8:1],1,4-8[8:1],4,7-4[8:1],7,
1-5[8:1],1,6-1[8:1],6,4,3,2/8,8,
7/1,4,1/7,4,1/7,4,1/7,4,
5/6,8,5/6,8,5/6,8,6/5,8,
7/1,3/5,1/7,3/5,7/1,3/5,1/7,3/5,
{4}8b/4b>1[8:1],7,5<8[8:1],1,
4-1[8:1],8,5-8[8:1],1,
{2}7/3h[4:1],3/5h[4:1],
{4}4/6,{16}4,6,4,6,3,7,3,7,2,8,2,8,
{8}1,1-5[8:1],,8,{4}8-3[8:1],8V25[4:1]/3V15[4:1],
