&title=玛德琳娜电塔
&artist=纯 白 p 、薬 屋、w a r m a
&des=Lingenmel
&first=-0.6899996
&des_6=Lingenmel/KuankuanNotNice
&lv_6=12+
&inote_6=(128){4},,,,{1}7h[4:7]/3h[4:7],
,6h[4:7]/2h[4:7],
,1pp3pp5pp7pp1[2:3],
{2},,1-3[8:1],
5-7[8:1],
{4}1bx/E7f/A7/A6,8bx/E3f/A2/A3,{8},6,6,6,
{2}4h[4:1]/3-5[8:1],5h[4:1]/6-4[8:1],
1h[4:1]/2-8[8:1],8h[4:1]/7-1[8:1],
{4}1h[4:1]/2>5[8:1],2x,8h[4:1]/7<4[8:1],7x,
{2}4h[4:1]/3>8[8:1],5h[4:1]/6<1[8:1],
1h[4:1]/2pp4[8:1],8h[4:1]/7qq5[8:1],
4h[4:1]/3qq1[8:1],5h[4:1]/6pp8[8:1],
{4}7qq4[8:5],{8}3,3,,2,,1,
{4}8b/E3f/A2/A3,1b/E7f/A7/A6,{8},5/4,{4}5/4,
7/8<5[8:1],2/8,2/1>4[8:1],7/1,
8-2-7-4-6[8:5],8/3,3,3,
1q5[8:1],1/7,8p4[8:1],8/2,
3-5-1[4:1],3x,7-3[8:1],7/1,
{2}5h[4:1]/2<6[8:1],4h[4:1]/7>3[8:1],
{4}5V73-8[2:1],5,4,4,
2/1-5[8:1],1/7,7/8-4[8:1],8/2,
{2}1<1[2:1],1-5b[8:1],
{4}4/7-3[8:1],7/8,4/2-6[8:1],2/1,
8V64[4:1],4V28[4:1],8,4,
4/3<6[8:1],3/1,5/6>3[8:1],6/8,
{8}E7,E8,E1,E2,{4}E3,C,
2-5[8:1]/1-5[8:1],2x/1x,7-4[8:1]/8-4[8:1],8x/7x,
2-4[8:1]/6-1[8:1],6x/2x,7-5[8:1]/3-8[8:1],7x/3x,
{8}2x,2x,4,4,{4}6>3[8:1],6/1,
1-5[8:1],1/2,{2}8w4[8:1],
{8}4xV25[4:1]/6xV85[4:1],,,,,4,4,4h[8:7],
,2,{4}2<6[8:3],{8},,,,5-8[4:1]/8>5b[4:1],
,,,,8x,8,8-4[8:1],
,1,{4}1-7v5>4[8:3]*-3v5>4[8:3],{8},,,,3V58[4:1]/8-5-3[4:1],
,,,,2,2,2h[8:7],
,3,{4}3>7[8:3],{8},,,,8V63[4:1]*V64[4:1],
,,,,1,1>4[8:1],1,
{24}1bx<6[8:1],D2f,,,,,1bx,D1f,,,,,{2}8<1[8:5]/1>8[8:5],
{8},,,,7/2b-5[8:1],1,2/7-4[8:1],8,
{16}1x/7,,,2x,,,{8}3?pp5[16:3]/3xpp5[16:3],{16},5?pp7[16:3],,,7?pp1[16:3]*pp1[16:3],,,1?pp3[16:3],
,,,,,,,,{8}8-4[8:1],7,8/2-5[8:1],3,
{16}8x/2,,,7x,,,{8}6xV47-3-8-2[4:3],,,,,,,,,2x>5[8:1],
3,1<6[8:1],8,
{16}1x,,,2x,,,{8}5xw1[8:5]/4xw8[8:5],,,,,,,,2x,
{16}2x>5[16:3],,,5x<1[16:5],,,{8}1x,
{16}1x>4[16:3],,,4x,,,{8}8x,{24}8x,7x,6x,5x,4x,3x,2x,1x,8x,7x,6x,5x,
{4}4x-8[8:1],4/2,{8}2>6[4:1],1,8,7,
{16}8h[16:3],,,7xh[16:3],,,{8}6x>2V86[4:3]*>2V86[4:3]`6?-4-2<6[4:3],,,,,,,,,4>8[4:1],
4,7,7,
{16}7x<3[16:3],,,3xq7[16:3],,,{8}1x,,2x,{4}2xw6b[4:1],
{8},,,,2-4[8:1],4-8[8:1],,,{4}7-3[8:1],
{8}7/1,1,,5/4,{4}5-8[8:1]/4-1[8:1],
{8}5/4,,,6x,{16}6x<1[16:3],,,1x>5[16:5],,,{8}5x,
{16}5x<8[16:3],,,8x,,,{8}4x,{24}4x,3x,2x,1x,8x,7x,6x,5x,4x,3x,2x,1x,
{4}8x-4[8:1],8/6,E8/B4,E2/B5,
E1/E7,{8}E4,E3h[8:7],,E8/B7,,B5/E6,
,A7/E7,,,{4}E4/B8,E6/B1,
E5/E3,{8}E8,E7h[8:7],,E4/B3,,B1/E2,
,A3/E3,,,{4}E6/B1,E4/B8,
E5/E7,{8}E2,E3h[8:7],,E6/B6,,B8/E8,
,A6/E7,,,{4}E2/B5,E8/B4,
E1/E3,{8}E6,E4,{4}8b/E3f/B3/B2,1b/E7f/B7/B6,
{8},4/5,{4}5/4,{8}4/2-6[8:1],2,{4}2/1,
{8}5/7-3[8:1],7,{4}7/8,1V35[4:1],5V71[4:1],
1,5,{8}5/6>3[8:1],7,{4}6/8,
{8}4/3<6[8:1],2,{4}3/1,2-5[8:1],8-4[8:1],
{2}1-5[8:1],{4}6<1[8:1]/1>4[8:1],1/6,
3x>8[8:1]/8x<5[8:1],8/3,8x/1>4[8:1],1/2,
1/8<5[8:1],8/7,8/1p4[8:1],1/3,
1/8q5[8:1],8/6,3x-1[8:1],6x-8[8:1],
{2}Cfh[4:1],{4}3h[2:1],{16}2x,1x,8x,7x,
6x,5x,4x,3x,2x,1x,8x,7x,{4}6xh[2:1],{16}7x,8x,1x,2x,
3x,4x,5x,6x,7x,8x,1x,2x,{4}3xh[2:1],{16}4x,5x,6x,7x,
8x,1x,2x,3x,4x,5x,6x,7x,{4}8xh[2:1],{16}7x,6x,5x,4x,
3x,2x,1x,8x,7x,6x,5x,4x,{4}3x>7[8:1],3/1,
6<2[8:1],6/8,4/2xq7[8:1],2/8,
5/7xp2[8:1],7/1,{8}3,3,6,6,
{16}4,5,4,5,4,5,4,5,{4}E3f/E2/E4,E7f/E8/E6,
{8}5/4,6/3,7/2,8<5[4:1]/1>4[4:1],,,,,3/6b-1[8:1],
5,6/3-8[8:1],4,{16}3/5x,,,6xh[16:17],,,{8}7>8[8:1],
8?>1b[8:1],1?>2[8:1],2?>3b[8:1],3?<4[8:1],{2}4?<5b[8:1],
{8}6-2[8:1],7,6/4-1[8:1],3,{16}6x/4,,,7x,,,{8}8xV27-3-6-4[4:3],
,,,,,,,,4x>1[8:1],
3,5<8[8:1],6,{16}5x,,,4x,,,{8}1xw5[8:5]/8xw4[8:5],
,,,,,,,4x,
{16}4x>1[16:3],,,1x<5[16:5],,,{8}5x,{16}5x>2[16:3],,,2x,,,{8}6x,
{32}6x,7x,8x,1x,2x,3x,4x,5x,6x,7x,8x,1x,2x,3x,4x,5x,{4}6x-2[8:1],{16}6/4,Cf,,,{8}3>7[4:1],
4,5,6,{16}5h[16:3],,,4xh[16:3],,,{8}6x<2V46[4:3]*<2V46[4:3]`6?-8-2>6[4:3],
,,,,,,,,1>5[4:1],
1,6,6,{16}6x<2[16:3],,,2xp6[16:3],,,{8}4x,
,3x,{4}3xw7b[4:1],{8},,,,3-1[8:1],
1-5[8:1],,,{4}6-2[8:1],{8}6/4,4,
,8/1,{4}1-5[8:1]/8-4[8:1],{8}8/1,,,7x,
{16}7x<4[16:3],,,4x>8[16:5],,,{8}8x,{16}8x<5[16:3],,,5x,,,{8}1x,
{32}1x,2x,3x,4x,5x,6x,7x,8x,1x,2x,3x,4x,5x,6x,7x,8x,{4}1x-5[8:1],1/7<6>5>4>3>2<1<8<7<6>5>4>3>2<1<8<7[4:23],
{1},,,,,{4},,,{8},2,
{16}2h[16:3],,,3h[16:3],,,{8}4,{16}5h[16:3],,,6h[16:3],,,,,{1}Cfh[2:3],
{8},,,,6b-1[8:1],6,3-8[8:1],3,
{16}8x,,,7x,,,{8}6xpp1[8:3],,3,{4}3,
5v2[8:1]*v8[8:1],5,{8}4/3<6[8:1],2,3/1,8,
{16}7,,,6x,,,{8}5xh[4:1],,6x,{4}7x-2[8:1]/6x-3[8:1],
{8},,,,8/1>4[8:1],2,1/8<5[8:1],7,
{16}8x,,,2x,,,{8}6xw2[8:5]/4xw8[8:5],,,,,,,,4x,
{16}4x>1[16:3],,,1x<5[16:5],,,{8}5x,
{16}5x>2[16:3],,,2x,,,{8}6x,{16}6x,5x,4x,3x,{24}2x,1x,8x,7x,6x,5x,
{32}4x,3x,2x,1x,8x,7x,6x,5x,4x,3x,2x,1x,8x,7x,6x,5x,{2}4bx-2-5-8-6[4:7],
,,,8-5>8[4:7],
,,,4-6-1[4:7],
{8},,,,,,,,,,,,8h[8:3],
{16},,,,7x,6x,
{8}5xh[8:3],{16},,,,4x,3x,{2}2bx-6[1:1],
E
