&title=Deluge
&artist=Juggernaut.
&first=-0.25
&des=flzat7zmd5r
&des_5=flzat7zmd5r
&lv_5=14
&inote_5=(210){4},,,,,,,,{2}1/7qq4[8:7],
1,
,2pp6[1:1],
8,7,
7,{8}6,5,4,3,
{4}2h[8:3],{8}4,4h[4:1],,6,{4}6h[4:1],
{8}8,8,,2,{4}2,3/7-5[8:1],
{8}7,2-4[8:1],6,2,7-1[8:1],2>8[8:3],{4}7,
{8},,,Cfh[8:5],,,,,,,7b/8b,
6b/1b,,2b/1b,{4}3b/8b,
{8}2-5[8:1],8,2,7-4[8:1],1,7,{4}2,
8b/1b,{8}7b/8b,6b/1b,,1b/2b,{4}8b/3b,
{8}7-1[8:1],1,7,3-5[8:1],6,3,{4}7,
2b-5[8:1],{8}6b,6b-1[8:1],,2b,{4}2b,
{8}3-5[8:1],7,3,6-8[8:1],3,6,{4}2,
{16}1,2,3,4,7,8,1,2,6,7,8,1,{8}2x/6x,2x/6x,
,8/2,6/3,7/1,{16}6/2,3,4,5,6,7,8,1,
{4}6bx/2bx-6[8:1],{8}7b,7b-4[8:1],,1b,{4}1b,
{8}2/6,3,4/7,6,5/1,2,3/8,7,
{4}6/2b-5[8:1],{8}8b,8b-4[8:1],,2b,{4}2b,
{16}1,7,1,7,2,6,2,6,3,5,3,5,{4}4-8[8:1],
{8}4bx/7,6,5/1,2,3/8,7,6/2,3,
4/7,7/4,6/3,6/3,5/2,5/2,4/1,4/1,
{16}2,5,2,5,3,6,3,6,4,7,4,7,{24}5bx,6x,7x,8x,1x,2x,
{4}3x/6-4[8:1],3-7[8:1],8-4[8:1],2<2V86V42[1:4],
{1},{4},,,{24}B7,
E7,{12}B6,B8,
{1}Ch[8:1],
{8},,,7bxh[8:3],,,,,{4}E8,
E7,E6,E5,
E4,E3,E2,E1,
{8}3h[1:1]/E8,E7,E6,E5,E4,E3,E2,E1,
{32}D8,A7,D7,A6,D6,A5,D5,A4,D4,A3,D3,A2,D2,A1,D1,A8,{2}3b/D8f/A7/E8/B8/B7,
{6}6bx/2bx,{96}4,3,,,,,,,,,,,,,,,,,,,5,4,,,,,,,,,,,{6}7bx/3bx,{96}6,5,,,,,,,,,,,,,,,5,4,,,,,,,,,,,,,,,{8}2-6[8:1],
2,8-4[8:1],8,{32}B8/2>8[32:7],Cf,{16}B4,{32},,,,,,,,,,,,1x,
2x,3x,4x,,,,,{16}B7,B6,{8}B5,{32}B1/B2/E2,B8,E3,C,{16}B7,B4/B3,{8}B6/B5,Cfh[8:5],
,,,,{2}7bxs3[4:1],
{4}A3f/B3/E4/E3/D3/D4,4x/1xh[4:1],{8}4h[16:1],4h[16:1],2h[16:1]/5h[16:1],2h[16:1]/5h[16:1],
{4}5x/2x,{64}E7/B6,A6,,,,,,,E2/A1,B1,,,,,,,A3/E3,D3,,,,,,,E5/B4,A4,,,,,,,B6/E7,B7,,,,,,,,,,,,,,,{4}5/2pp8[2:1],
6,6,7,
1/7qq4[2:1],2,2,3,
{6}2bx/6bx,{96}7,8,,,,,,,,,,,,,,,8,1,,,,,,,,,,,,,,,{6}7bx/3bx,{96}2,1,,,,,,,,,,,,,,,1,8,,,,,,,,,,,,,,,{8}6/2,
{24}4,5,3,{8}4,6/2,7/1,8-4[8:1]*-3[8:1],{16},,,,E4f/B4/B3/A3/D4/A4,
,,7h[96:1]/8h[48:1],{96},,,,,,,,,,,,1h[48:1],8h[48:1],,,,,,,,,,,{8}6bx/2bxh,{96}5h[48:1],4h[32:1],{16},,,{64},,{96},{8}4h[96:1]/3h[32:1],
{4}5bx/2bx,{16}6,5,{8}6,{32}4/A7,D8,A8,D1,A1,D2,A2,D3,A3,D4,A4,D5,A5,D6,A6,D7,
{4}A7/Cf,8b/2b,{8}1>3b[8:1],3<5b[8:1],5<7b[8:1],7>1>3<5<7>1[8:5],
{4}Ch[16:1],{16}A1,A2,A3,A4,A5,A6,{8}A7,{4}A8/D1/A1/E1,
7b-4[8:1],{8}2/7,3v8[8:1],,6/3,{4}6-1[8:1],
{8}3/6,3-5[8:1],,3/7,{16}7,8,1,2,3,4,5,6,
{1}7/1bpp5[1:3],
,,,E2/B2/8V64v7-5-3[4:5],
B1/B2,
7h[4:3]/1-3-5v2V46[4:5],
8qq3b[4:3],
{4}1h[1:1],{8}4,4,,5,,,{4}6h[1:1],
{8}2,2,,,{4}3,
3h[2:3],{8}7,7,,,{4}8,
{1}7p5[2:1],
{2}1h[2:1],7h[2:1],
3h[2:1],5h[2:1],
{1}1pp4[4:5],
5V71b[8:3],
{2}7h[4:1]/2-6-4[4:1],{8}8,8,8,8,
1,7,2,6,{64}A1/B1,E1,E2,D1,{16}D2,,,,,,,{2}3h[4:1]/6-2-8[4:1],
{8}4,4,4,4,
5,3,6,2,{64}D7/E7,A6,A7,B6,{16}B7,,,,,,,{4}4/2h[4:3],
4,4,4,
5/7h[4:3],5,5,5,
{8}2,2,6,6,{16}2,3,4,5,6,7,{8}8-5[8:1]*-3[8:1],
,8w4[8:1],,8b,{32},,,,8b,7/1,6/2,5/3,{4}4,
{8}A6/D7/A7/B6/B7/E7f/1-4[8:1],1,5<8b[8:1],5,3-7[8:1],3,{16}6,5,{8}4-8[8:1],
1,4x,{16}1,2,{8}3-8-4b[4:1],6,3x,5,6-2[8:1],
6,3v8[8:1],3,6,6,1,1,8,
{16}8x/1x,7/2,{8}3/6,{16}5/4,6/3,{8}7/2,8/1-3-8-4[2:1],7,6,5,
{4}4bx,{16}7,6,{8}5,{16},,2b,1,3,8,{8}4,
{16}6b,5,{8}7,4b,{24}5,3,5,{8}3,6/2,7b/1b,2,
3/5,6,7/2,{16}3,4,{8}2,{16}6,5,{8}7,1/8,
2,3-1-6-4-2[2:1],{4}4/6,{8},,,,8-5[8:1],
8,3<6b[8:1],3,7-1[8:1],7,{16}2,3,{8}4-1[8:1],
7,4x,{16}7,6,{8}5-1-6b[4:1],2,5x,2,3>8[8:1],
3,5-1[8:1],5,3,3,8,8,7/2,
{16}8x/1x,7/2,{8}6/3,4,{24}5,4,5,{8}4,6/3,7/2,1/8,
{4}2>5[8:1],{8}7,7>2[8:1],,6,5,4,
{4}3<6[8:1],{8}8,8>3[8:1],,7,6,5h[8:1],
,1x,{16}7b,8,6,1,5,2,1,3,8,4,{8}5bx/7-2-5-8-3[8:7],
,4bx,,3bx,,2bx,,,{4}1bx>4[8:1],
{8}7,7bx-1[8:1],,5,4,3bx-8[8:1],
,3/6bx-2[8:1],,6/4,3,4>1[8:1],8-4[8:1],4,
{16}8b,,,1,,,{8}2b-5[8:1],7-4[8:1],2,7,1-4[8:1],
,1b/6b,{16},,6,5,{8}7/4,8,1/2,3,
{16}4b/6b<1[8:1],,,3,,,{8}3<6[8:1],{4}2x,{8}1>4[8:1],8x,
,7,{16},,5,6,{8}7b/4b,3,2/1,8,
7/4b,4,3/6,3,6/2,6,7/3,7,
6/2,{32}1bx,2,3,4,,,,,6bx,5,4,3,,,,,2bx,3,4,5,,,,,8bx,7,6,5,
{4}4-1[8:1],4b/E8/B8f/B7/D8/A7/A8,{8}6/2,3,4/7,6,
{16}5/3,,,4/2,,,3,5,{8}3,2,7/3,6,
{16}1/5,,,6/2,,,6,5,{8}6,4,7/3,5-8[8:1]/4-1[8:1],
,5b/4b,{16},,7/2,6/3,{8}5/4,{24}3,6,3,{8}6,7/2,
1/5-8-4-7[8:5],1,1,1,2,2,2,2,
1-5-3-6[8:5],8,8,8,7,7,7,7,
{16}7bx,6,5,4,8,1,2,3,8,7,6,5,1,2,3,4,
{32}7bx,6,5,4,3,2,1,8,7,6,5,4,3,2,1,8,{2}7z3[4:1],
{1}1h[1:4],
E4,
B6,
E5,
{8}6,6,6/4,3,2/5,5,{16}6,4,6,4,
{8}6,3,3,5,5,2,{16}3,4,3,4,
{4}3,{16}3,6,4,5,4,5,3,6,2,7,{8}1qq4[24:13],
,,,,,,,,{4}8v5[8:1]*v3[8:1],
8b/Cf,{8}2,6/1,7,{16}8,8,
{8}8,7/1,2,{16}1,1,{8}1,8/2,7,1,
7/3,6,5/2,1,8/2,7/3,6/4,7/5,
{16}3,4,{8}2h[8:1],6,{24}5,7,5,{8}7,8/3,6/2,5/3,
{4}6/1-3[8:1],{16}8/1-5[8:1],7,{8}6,1-4-2[4:1],6,1,7,
{4}8-6[8:1],{16}1/8-4[8:1],2,{8}3,8<3[4:1],3,8,2x,
{24},,,1b,8,1,{16}8,2,7,3,6,3,{24}6,,4,5,4,5,3x/6x,,,8x/1x,
7x/2x,6x/3x,5x/4x,,,,,,{8}7/2,,7/2,6/3,5/4,
{1}Cf,
,,,8q1>7[4:7],
B5/E5/B4,
2qq7b[4:3],
{8},E5,,C,
E
