&title=オールセーブチャレンジ
&artist=香椎モイミ
&first=1.49
&des_5=Saki
&lv_5=14
&des=Saki
&inote_5=(171){4},,,,{48}1b/8b,
7/2,3/6,5/4>5[16:23],{4},,,{16},,{24},{1}3h[2:3],
5<4[2:3],
6h[2:3],
3>4[2:3],
2h[2:3],
7>6[2:3],
7h[4:3],
{4}7,5h[4:3],2,4h[4:1],
{8},,,1,{2}1-5[8:1],
{16}3b,4,{8}3,{16}3,5,{8}3,{16}3,6,{8}3,{16}3,7,{8}3,
6/2,8,3/7,1,5/2,1,7/4,8/3,
{16}6,5,{8}6,1/7,{16}3,4,{8}3,7,8/2,7/3,
{16}6,4,6,3,6,2,6,1,6,8,6,7,6,5,{8}6,
{16}4,7,{8}4,{16}3,7,{8}3,{16}2,7,{8}2,{16}1,7,{8}1,
8/2,{16}6,4,{8}6,1/7,{16}2,5,{8}2,{16}7,3,6,4,
{8}5,{16}3,4,{8}3,6/1,{16}2,4,{8}2,7/8,1,
{16}6,2,6,3,6,4,6,5,6,7,6,8,6,1,{8}6,
7-4[4:1],7,8,1,2-5[4:1],2,1,8,
6-1[4:1],6,5,4,3-8[4:1],3,4,5,
6-3[4:1],6,7,8,1-6[4:1],1,2,3,
4-1[4:1],4,5,6,7-4[4:1],7,8,1,
2>5[4:1],2,1,8,7>2[4:1],7,6,5,
4<7[4:1],4,3,2,1>4[4:1],1,8,7,
7-4[8:1],7,7/2-5[8:1],2,2/6-1[8:1],6,6/3,3,
2/6,{16}7,8,{8}7,7/3,{16}2,1,{8}2,{4}6/1-5[8:1],
1/7-4[8:1],7/2-5[8:1],2/8-4[8:1],8/2q5[8:3],
{2}2/7-4[8:1],7-4[8:1]/8-3[8:1],
{4}2/1-4[8:1],1/8-5[8:1],8/7>2[8:1],7/3q5[8:3],
{2}3/7-4[8:1],{8}3,3h[8:1],2,2h[8:1],
1h[4:1],,,5h[4:1],,6,6h[8:1],7h[4:1],
,2,,3h[8:5],7,7,8,8,
{4}1h[4:1],{8}4,4h[4:1],,7,{4}7h[4:1],
{16}A1,A2,A3,A4,A8,A7,A6,A5,{4}Cf,{8}3,{16}B8,B7,
{8}3,E8,3,{16}4,7,{8}4,{16}2,6,{8}2,E8,
3,B7,{4}3,3/E8,{8}3,B7,
{4}3,{8}4,E8,4,B8,4,E8,
{4}4,{8}3,B7,3,E8,3,B7,
{4}3,{8}4,{16}E1,B8,{8}4,{16}3,7,{8}3,E7,
4,B7,3,B8,3,B7,3,B8,
{4}3,{8}4,4h[2:1],,6,{4}6h[4:1],
B2fh[4:1]/B3fh[2:1],{8},,,,7-5[8:1],8-4[8:1],
7-3[8:1],8-2[8:1],7,8,6-3[8:1],1-5[8:1],6,1,
8-6[8:1],2-6[8:1],8,2,7-3[8:1],1-3[8:1],7,1,
6b,{16}2,1,{8}2,{16}7,8,{8}7,3,8,8h[2:1],
,2,2,2,{16}2,1,3,8,4,7,5,6,
{8}4-8[8:1],6-4[8:1],4,6,1-5[8:1],7-3[8:1],1,7,
2-6[8:1],8-6[8:1],2-4[8:1],8-4[8:1],2,8,1,7,
7bh[8:1],{16}8,7,{8}8,{16}6,1,{8}6,2,2h[8:5],5,
,4,4,4,{16}4,3,5,2,6,1,7,8,
{8}7b,{16}7-4[8:1],8,{8}7,7,,8/1,1/2,3/8,
2b/1,{16}2-5[8:1],1,{8}2,2/1,,1/8,8/7,6/1,
7b/8,{16}7-4[8:1],8,{8}7,7/8,,1,2,3,
{4}4h[4:1],{8}6,6h[4:1],,,{4}2h[4:1],
{2}7b-4>3-8[4:13],8,
{4}E6,C,{2}E2,
E4h[4:1],2h[4:1],
1h[4:1],E8,
2-5<6-1[4:13],1,
E2,E6h[4:1],
{1}7h[4:3],
{4}8h[2:1],,,2,
{2}7<4pp5v3[2:7],1,
{4}2,2h[2:1],{8},,,,1h[4:1],
,,8h[4:1],,,{4}1,
2,1,{2}8,
{4}2h[8:3],{8}4,4h[2:1],,,5,5h[8:5],
,,,7,{4}7h[4:1],2,
8/1-5[8:1],1/3,{8},8/1-5[8:1],,1/3,
,,7/8<5[8:1],7/8,,,,,{2}2-5-3v4-2[2:7],
{8}6,6,,7h[8:3],
,,,,8,1h[4:1],,,,8,
{4}8,{8}7,6h[4:1],,,,7,
{4}7,,8,
{2}6qq3[4:9],8h[4:1],
1h[4:1],{8}2,,,1,
1h[8:3],,,,,2,{4}2h[4:1],
3h[4:1],4h[4:1],5h[4:1],6,
{2}3b/C/B7/A7f,5b/C/B1/A1f,
{16}4bx,3,2,1,8/4x,5,6,7,{4}8/4,{8}6,{16}3,4,
{8}3,6,7,{16}3,4,{8}2,{16}6,5,{8}7,3,
2,5,6,7,{16}2,4,3,5,4,6,5,7,
{4}6,{8}7,{16}2,4,{8}3,{16}7,5,{8}6,3,
1,2,3,4,{16}7,5,6,4,5,3,4,2,
{4}3,{8}2,{16}7,8,{8}6,{16}2,1,{8}3,6,
5,6,7,8,{16}2,1,2,3,2>5b[8:1],1,2,3,
{4}2,{8}8,8h[8:5],,2,{4}2-6[8:1],
2,B7/B6/E7,{2}B2/E3/B3,
{8}6h[2:1]/B4,B3,B2,E2,,,,,3h[2:1]/E6,
B6,B7,B8,,,,,5h[2:1]/B2,
B1,B8,E8,,,,,2h[2:1]/E8,
B7,B6,B5,,,,,5h[8:5]/6h[4:1],
,,6h[8:5],,,{4}5h[4:3],
{8},,,,,,,,4h[8:5]/3h[4:1],
,,3h[8:5],,,{4}4h[2:1],
{8},,2,2h[4:1],,7,{4}7h[4:1],
1>4[4:1],4<7[4:1],7>2[4:1],2>5[4:1],
5<8[4:1],8>4[4:1],4<8[4:1],8,
{8}5,6,7,8,{16}1,2,3,4,5,6,7,8,
{1}1bh[1:1],
{2}Cf,{32}2,3,4,5,6,7,8,1,{8}2b-5[8:1],6-2[8:1],
2,6,1-5[8:1],6-3[8:1],1-4[8:1],6-8[8:1],1,6,
{48}1b-6[8:1],2,3,4,,,{8}6,1,5,{48}1b-5[8:1],2,3,4,,,{8}7,{4}1,
{8}2/7b<4[8:1],{16}8,1,{8}7,3,{16}2-5[8:1],1,2,3,{8}2,{16}7-4[8:1],6,
{8}5x,{16}1-5[8:1],2,{8}3,{16}8-3[8:1],7,{8}6,{16}2,3,{8}4,8,
1/2b-5[8:1],{16}3,8,{8}2,6,{16}7-4[8:1],8,6,8,{8}7,1,
{48}2b-5[8:1],3,4x,5,,,{8}7,2,6,{48}2b-6[8:1],3,4,5,,,{8}8,{4}2,
{8}5b/2,{16}4-8[8:1],3,{8}5,4/3,{16}1-5[8:1],2,3,4,{8}5/1,2,
4/3,{16}7,8,{8}7,5/6,{16}2,1,{8}2,{4}6/3,
{24}7b,8,7-4[8:1],8,7,8,7,8,7,8,,,,,,{8}1/2,3/8,1/2,
{24}2b,1,2-5[8:1],1,2,1,2,1,2,1,,,,,,{8}8/7,6/1,8/7,
{24}7b,8,7-4[8:1],8,7,8,7,8,7,8,,,,,,{8}8/5,6/1,7/2,
{32}8/3b,4,5,6h[32:61],{4},,,{16},,{4}1h[8:3],
,,2,
{32}2b,1/5h,8/4h,7/3h,{8}2h/6-8-2-4-6[8:11],{1},{4},,,{16}3,
4,{8}3,8/2,{16}6,5,{8}6,2,1/7,2/6,
{16}3,5,3,6,3,7,3,8,3,1,3,2,3,4,{8}3,
{16}5b,2,{8}5,{16}6,2,{8}6,{16}7,2,{8}7,{16}8,2,{8}8,
1/7,{16}3,5,{8}3,8/2,{16}7,4,{8}7,{16}2,6,3,5,
{8}4,{16}6,5,{8}6,3/8,{16}7,5,{8}7,2/1,8,
{16}3,7,3,6,3,5,3,4,3,2,3,1,3,8,{8}3,
{1}B8h[8:9]/B1h[8:9]/B6h[8:9]/B3h[8:9]/Ch[4:9],
E
