&title=Protoflicker
&artist=Silentroom
&first=0
&lv_5=13+
&des_5=Prototype -Nab↓a- vs A↑ya “Flicker”
&inote_5=
(140){4},,,,{2}6h[4:1]/4h[4:1],
{4}4/6,{12}E7,E5,E6,
{4}3h[4:1],4,2/5,{12}E3,E5,E4,
{4}6h[4:1],5,4/7,{12}7,5,6,
{4}3h[4:1],5V71v6[8:3],2,4b,
{12}2,4,3,7,5,6,1,4,3,8,5,6,
1,5,3,8,4,6,1,3,2,8,6,7,
{6}1b,2bh[6:1]/8bh[6:1],,6b/5b,{12}7b/4b,E7,E5,E6,
{4}E3h[4:3],,,Cf/E7,
1-5[8:1],8p2[8:1],{12},,,4,,8,
{4}E4h[4:1],{32}B7,B6,{96},,,,,,,,,,{12}1,{6}1,{12}7,7,5,6,
{4}4-8[8:1],5p3[4:1],{12},,,1,1,3,
{6}2-5[12:1],{12}2,6-1[12:1],,6,{4}E4h[4:1],{32}B8,B7,{96},,,,,,,,,,,,,,,,,,{12}2,
6,4,8-4[8:1],,,{4}1,{12}3,,3,
{4}E6h[4:1],{32}B3,B4,{96},,,,,,,,,,{12}7,{6}7,{12}1,1,4,3,
{4}5-1[8:1],4q6[4:1],7,{12}8,8,6,
{6}7-4[12:1],{12}7,3-8[12:1],,3,{6}5-1[8:1],{12}5,2b,,,8,
2,7,3,6,4,{4}8-4[8:1],{12}3,,3,
{4}B6h[4:1]/B5h[4:1],{48}E2,E3,{24}E4,,,{12}8,8,5,6,1p5[8:1],,5,
{4}1<6[8:1]*>3[8:1],1,{12}5,4,6,5,8,1,
{6}7-4[12:1],{12}7,1-6[12:1],,1,{4}B5h[4:1]/B4h[4:1],{48}E8,E1,{24}E2,,,,,{12}2,
4,3,7,5,6,1,4,3,8,5,6,
1,5,3,8,4,6,1,3,2,8,6,7,
1,1,5,3,3,7,5,7,1,4,2,8,
4,4,8,2,2,6,4,{24}7x,8x,{12}7x,1,{24}6x,5x,{12}6x,
4-8[12:1],5,3,4bx>6[3:1],,,{4}1,{12}5-1[12:1],,5x,
{4}E4h[4:1],{32}A8,A7,{96},,,,,,,,,,{12}1,4,3,5,2<7[8:1],1,3,
{6}2x,{12}3,3,5,1,{4}B6h[4:1]/B5h[4:1],{32}A1,A2,{96},,,,,,,,,,{12}7,
{6}7-4[12:1],{12}7,3-8[12:1],,3,{6}6,{12}7,1-4[8:1],8,2,
{6}1,{12}3,5qq4[4:1],4,6,{4}5,{32}A7,A6,{96},,,,,,,,,,{12}4x,
{6}5-1[12:1],{12}5,2-4[12:1],,2,{6}8,{12}8,5-1[8:1],6,4,
{6}5,{12}2,8V24[4:1],1,7,{4}8,{32}A6,A5,{96},,,,,,,,,,{12}4x,
7,5,6,2,4,3,7,7,3,5-8[8:1],4,6,
{6}5,{12}7,1<5[4:1],8,2,{4}1x,{32}A2,A3,{96},,,,,,,,,,{12}5x,
2,4,1,7,5,8,2,2,6,1s5[4:1],8,2,
{4}1x,{32}A2,A3,{96},,,,,,,,,,{12}6,{6}6,{12}2,8-4[8:1],1,7,
{4}8x>3[8:1]*<5[8:1],8,{6}2/6,{12}1,5,3,7,
{6}1-5[12:1],{12}1x,6,,6,2,2,5,3,4,1,
7,7,4,6,5,8,{4}4v6b[8:1]*v3b[8:1],4>5[2:3],
{1}4bxh[2:3],
{6},,,,,,Cf/B5/B4,
{12},,,,,,,,B2,C,
{6}B6,{12},,,,,,,,B5,C,
{6}B1,{12},,,,,,,,E1,C,
{6}E5,{12},,,,,,,,E7,E6,
{6}E3h[1:1],{12},,,,,,,,B8,B7,
{6}B6h[1:1],{12},,,,,,,,A1,A2,
{6}A3h[1:1],{12},,,,,,,,E8,E7,
{4}E6h[4:3],,,1x,
7<4[8:1],B6/B5,3-8[8:1],B6/B7,
5q1[8:1],B3/B4,2q6[8:1],B8/B7,
8-4[8:1],B2/B3,2>5[8:1],B3/B4,
6pp8[8:1],B3/B4,2pp4[8:1],B7/B8,
7-4[8:1],A2/B2,3>8[8:1],B6/A6,
7v6[8:1],A1/B1,3v2[8:1],A5/B5,
6<1[8:1],B3/A3,4-8[8:1],B7/A7,
{1}6b,
{32}1x,B1,{96},,{12}7,7,{96}3x,,,B3,,,,,{12}5,5,{32}2x,B2,{96},,{12}8,8,{96}4x,,,B4,,,,,{12}6,6,
{32}1x,B1,{96},,{12}7,7,{96}3x,,,B3,,,,,{12}5,5,2xh[12:1],{24}7,8,{12}7,1,8,3,
{32}7x,B7,{96},,{12}1,1,{96}5x,,,B5,,,,,{12}3,3,{32}8x,B8,{96},,{12}2,2,{96}6x,,,B6,,,,,{12}4,4,
{32}7x,B7,{96},,{12}1,1,{96}5x,,,B5,,,,,{12}3,3,7xh[12:1],{24}2,1,{12}2,8,1,6,
{32}2x,B2,{96},,{12}5,5,{96}3x,,,B3,,,,,{12}7,7,{32}1x,B1,{96},,{12}6,6,{96}4x,,,B4,,,,,{12}8,8,
{32}2x,B2,{96},,{12}5,5,{96}3x,,,B3,,,,,{12}7,7,2xh[12:1],{24}7,8,{12}7,1,8,3,
{32}7x,B7,{96},,{12}4,4,{96}6x,,,B6,,,,,{12}2,2,{32}8x,B8,{96},,{12}3,3,{96}5x,,,B5,,,,,{12}1,1,
{32}7x,B7,{96},,{12}4,4,{96}6x,,,B6,,,,,{12}2,2,7xh[12:1],{24}2,1,{12}2,8,8,8,
{32}2x,B2,{96},,{12}6,4,{96}7x,,,B7,,,,,{12}3,5,{32}1x,B1,{96},,{12}7,5,{96}8x,,,B8,,,,,{12}2,4,
{32}2x,B2,{96},,{12}6,4,{96}7x,,,B7,,,,,{12}3,5,1xh[12:1],{24}7,8,{12}7,1,8,3,
{32}7x,B7,{96},,{12}3,5,{96}2x,,,B2,,,,,{12}6,4,{32}8x,B8,{96},,{12}2,4,{96}1x,,,B1,,,,,{12}7,5,
{32}7x,B7,{96},,{12}3,5,{96}2x,,,B2,,,,,{12}6,4,8xh[12:1],{24}2,1,{12}2,8,1,6,
{32}3x,B3,{96},,{12}7,1,{96}6x,,,B6,,,,,{12}2,8,{32}4x,B4,{96},,{12}7,1,{96}5x,,,B5,,,,,{12}2,8,
{32}3x,B3,{96},,{12}7,1,{96}6x,,,B6,,,,,{12}2,8,3xh[12:1],{24}7,8,{12}7,1,8,2,
{32}6x,B6,{96},,{12}2,8,{96}3x,,,B3,,,,,{12}7,1,{32}5x,B5,{96},,{12}2,8,{96}4x,,,B4,,,,,{12}7,1,
{32}6x,B6,{96},,{12}2,8,{96}3x,,,B3,,,,,{12}7,1,6xh[12:1],{24}2,1,{12}2,8,1,6,
{6}B2h[1:1],{48}4x,B4,,,,,,,8x,B8,,,,,,,3x,B3,,,,,,,7x,B7,,,,,,,{12}B4,B5,
{6}A6h[1:1],{48}1x,B1,,,,,,,5x,B5,,,,,,,8x,B8,,,,,,,4x,B4,,,,,,,{12}8x,1x,
{6}2xh[1:1],{48}4x,B4,,,,,,,7x,B7,,,,,,,3x,B3,,,,,,,8x,B8,,,,,,,{12}4x,5x,
{6}6xh[2:1],{48}1x,B1,,,,,,,4x,B4,,,,,,,8x,B8,,,,,,,5x,B5,,,,,,,{12}7x,1x,
{6}B7h[1:1],{48}5x,B5,,,,,,,1x,B1,,,,,,,6x,B6,,,,,,,2x,B2,,,,,,,{12}B5,B4,
{6}A3h[1:1],{48}8x,B8,,,,,,,4x,B4,,,,,,,1x,B1,,,,,,,5x,B5,,,,,,,{12}1x,8x,
{6}7xh[1:1],{48}5x,B5,,,,,,,2x,B2,,,,,,,6x,B6,,,,,,,1x,B1,,,,,,,{12}5x,4x,
{6}3xh[2:1],{48}8x,B8,,,,,,,5x,B5,,,,,,,1x,B1,,,,,,,4x,B4,,,,,,,{12}2x,8x,
3/5,4,4,5/7,6,6,1/7,8,8,3/1,2,2,
8/4,7,6,5/1,2,3,4/7,{24}6,5,{12}6,4,8,2,
6/4,5,5,4/2,3,3,8/2,1,1,6/8,7,7,
1/5,2,3,4/8,7,6,5/2,{24}3,4,{12}3,5,1,7,
2/6,3,5,7/3,6,4,1/5,2,6,8/4,7,3,
8/4,7,6,1/5,2,3,4/7,{24}6,5,{12}6,4,7,1,
7/3,6,4,2/6,3,5,8/4,7,3,1/5,2,6,
{24}1,8,7,6,5,4,{32}8,1,2,3,4,5,6,7,{6}8w4b[12:1],8b,{12},,{4}B1h[4:1],
{32}B6,B5,,,,,,,{4}2h[4:1],{12}B4,,1,
{4}1h[4:1],{32}B2,B3,{96},,,,,,,,,,{12}1,{4}1-5[8:1],8,
B8h[4:1],{32}B3,B4,,,,,,,{4}7h[4:1],{12}B5,,8,
{4}8h[4:1],{32}B7,B6,{96},,,,,,,,,,{12}8,4,5,3,6,1,8,
{32}2x,B2,{96},,{12}6,4,{96}7x,,,B7,,,,,{12}3,5,{32}1x,B1,{96},,{12}7,5,{96}8x,,,B8,,,,,{12}2,4,
{32}3x,B3,{96},,{12}7,1,{96}6x,,,B6,,,,,{12}2,8,{32}4x,B4,{96},,{12}7,1,{96}5x,,,B5,,,,,{12}2,8,
{6}1b,{48}1x/B8,2x/B7,3x/B6,4x/B5,,,,,{12}2,2,{6}8b,{48}8x/B1,7x/B2,6x/B3,5x/B4,,,,,{12}7,7,
{6}1b,{48}1x,2x/8x,3x/7x,4x/6x,{12}5x,2,2,{6}8b,{48}8bx,7bx/1bx/E8/E1,6bx/2bx/E7/E2,5bx/3bx/E6/E3,{4}4bx/E5/E4,
E
