&title=Cthugha
&artist=USAO
&first=0
&des=Soyorin does not respect for Jack
&lv_6=14
&des_6=Soyorin does not respect for Jack
&inote_6=
(213){4},{8},,,,,,,,,,,,,,,,,,,Ch[8:1],
,,{2}B6h[32:1],
B5h[32:1],
B4h[32:1],B3h[32:1],
B2h[32:1],B1h[32:1],
B8h[32:1],{4}B7h[32:1],1xw5[8:1],
{2}1b<2[4:11],B1h[32:1],
B2h[32:1],B3h[32:1],
B4h[32:1],B5h[32:1],
{4}B6h[32:1],8x-4[8:1],{8}2,2,3,3,
5b/4bv1[8:1],6-8[8:1],4,6,2>5[8:1],1v6[8:1],2,1,
{16}3,,,4/5,,,{8}4/3,{4}3/4-8[8:1],4b,
{2}1x-5[8:1],8x-4[8:1]*-6[8:1],
1xw5b[8:1],{24}2,3,4,5,6,7,8-4b[8:1],1,2,3,4,5,
{2}6/8b,{8}4/3,4/3,2,3/4,
3/4,5,4s8[4:1]/3z7[4:1],2,{2}4/3,
{16}1-5[8:1],2,3,4,{4}5/1,{8}4,4,7,7,
{16}8,7,6,5,4,3,2,1,{8}8,8,3,3,
{1}5bpp4[4:5]/1bpp8[4:5],
{4},,,7-1[8:1],
{8}7b-5[8:1],4,7>1[8:1],2,7-4[8:1],4,7,2,
3-1[8:1],8,3<5[8:1],6,3,8,3/6,3/6,
1>4[8:1],8,{4}1/7h[4:1],{8}8<5[8:1],1,{4}8/2h[4:1],
{8}1-5[8:1],8,{4}1/7h[4:1],{8}4,4,5/3,5/3,
2-8[8:1],7v4[8:1],2,7,1>4[8:1],5v8[8:1],1,5,
2,2-5[8:1],,6,{4}6v1[8:1],8-4[8:1]*-5[8:1],
8,{8}3,3,6,6,2,2,
{4}7b-3b[8:1],8b-4b[8:1],{2}1bw5b[8:1],
{8}2bx>5[8:1],1,8,7>2[8:1],6,5,4<7[8:1],3,
2,1,{4}8-5[8:1]*-6[8:1],8-3[8:1]*-2[8:1],8,
4/7-4[8:1],{8}7/3,2-5[8:1],,2/6,{4}7pp2[8:5],
{8}6,6,5,5,4,4,3,3,
2b,8-4[8:1],7-3[8:1],8,{4}7,{8}4,6-2[8:1],
5-1[8:1],6,{4}5-8[8:1]*-7[8:1],5-2[8:1]*-3[8:1],5,
1/8v5[8:1],{8}8/2,1v4[8:1],,1/7,{4}8pp5[8:5],
{8}6,6,5,5,{16}4,3,2,1,{4}8-4b[8:1],
{8}8bx>3[8:1],7,6,5<8[8:1],4,3,2>5[8:1],1,
8,7,{4}6-1[8:1]*-8[8:1],6-3[8:1]*-4[8:1],6,
7/2v5[8:1],{8}2/8,7v4[8:1],,7/1,{4}2pp5[8:5],
{8}1,1,8,8,7,7,6,6,
5b,3-7[8:1],4-8[8:1],3,{4}4,{8}1,{16}7,8,
{4}7v4[8:1],7/1-4[8:1]*-3[8:1],1-6[8:1]*-7[8:1],1,
{16}3,4,{8}3,{16}6,5,{8}8h[4:1],,4,7/3,6/2,
{32}5/1qq6[8:3]*pp4[8:3],B1,C,B5,{4},,{16},,{4}8x-4b[8:1],
{8}8b-5[8:1],1,2,3-8[8:1],4,5,6-3[8:1],7,
8,1,{4}2-5[8:1]*>5[8:1],2-7[8:1]*<7[8:1],2,
6/3-8[8:1],{8}3/5,6-1[8:1],,6/4,{4}3pp8[8:5],
{8}1,1,8,8,7,7,6,6,
{4}5/1>6[16:3],1b/Cf,8<3[16:3],8b/Cf,
1>6b[16:3],1b/Cf,8<3b[16:3],8b/Cf,
{16}2,1,{8}2,{16}7,8,{8}5h[4:1],,1,6/2,7/3,
{32}4/8pp3[8:3]*qq5[8:3],B8,C,B4,{4},,{16},,{4}1x-5b[8:1],
{1}1b-7s3-5-1[2:3],
{2},,8x-4[8:1],
1x-5[8:1]*-3[8:1],
{24}8,7,6,5,4,3,2,1,8,7,6,5,{2}4w8b[8:1],
6b/2b-5[8:1],{8}7,6/4,4/6,5,
6/4,3,6/4,7,{2}8/2-5[8:1],
{16}1-5[8:1],8,7,6,{4}5/1,{8}6,3/5,5/3,4,
3/5,2,3/5,6,{2}1/7-4[8:1],
{4}3>6[16:3],3b/Cf,5<2[16:3],5b/Cf,
3>6b[16:3],3b/Cf,5<2b[16:3],5b/Cf,
{8}3-8[8:1],3,4-7[8:1],4,2-5[8:1],2,6-1[8:1],6,
{16}4,,,3,,,{8}6/2,{4}2-5[8:1]/6-1[8:1],6/2,
{2}3b/7b-4[8:1],{8}2,3/5,5/3,4,
3/5,6,3/5,2,{2}1/7-4[8:1],
{16}8-4[8:1],1,2,3,{4}4/8,{8}3,6/4,4/6,5,
6/4,7,6/4,3,{2}8/2-5[8:1],
{8}6-1[8:1],6,5-2[8:1],5,7-4[8:1],7,3-8[8:1],3,
{16}5,,,6,,,{8}3/7,{4}7-4[8:1]/3-8[8:1],3/7,
{24}5bx/1bx,2x/6x,3x/7x,4x/8x,,,{8}5x/1x,1x/5x,{24}1bx/5bx,8x/4x,7x/3x,6x/2x,,,{8}1x/5x,1x/5x,
{1}4xqq4b[8:3]*pp4b[8:3],
Cf/8bpp2pp4pp6pp8[4:11],
{4},,,,,,,,,,,1xw5[8:1],
{1}1b<2[1:1],
{8},B7,{4}B6,B8/B1,B5/B4,
B8/B7,{8}B4,E3/B2,,B5,{4}B7/E7,
{1}B4h[4:3]/B3h[4:3],
{8}7b,,,6h[4:1],,,{4}6,
7,6,7,6,
7,{8}6,6,,7,{4}7,
{1}6h[1:1]/7-2[8:3],
{8}7b,,,7h[4:1],,,{4}7,
6,7,6,7,
6,{8}7,7,,6,{4}6,
7h[4:3],,,6b,
4/3,4/3,4/3,{8}3/4,4/5,
{4}5/6,5/6,{8}6/5,5/6,{16}5,6,{8}4,
5/3,3/5,{4}3/5,5/3,{8}5/3,4/6,
{4}5/7,7/5,{8}6,6,3,3,
5/4,6,5/4,3,4/5,6,5/4,3,
4/6,7,5/3,2,6/4,8,5/3,1,
3/7,3/7,6/2,6/2,5/1,5/1,4/8,4/8,
{32}1,2,3,4,5,6,7,8,1,2,3,4,5,6,7,8,1,2,3,4,5,6,7,8,{4}1-4[8:1]/5q7[2:3],
{1}5b/1bq3[4:5],
{8},,,,,,,,8V64[8:1],
4-7[8:1],3,2,2-6[8:1],8-5[8:1],2,8,
{4}3>8[8:1],{8}3/7,6-1[8:1],,6,{24}3,4,5,6,7,8,
{4}1-5[8:1],{8}4,6,{4}8-4[8:1],{8}5,3,
{4}1-5[8:1],{8}4,6,7/3,7/3,2/6,2/6,
1V35[8:1],5-2[8:1],6,7,7-3[8:1],1-4[8:1],7,1,
{4}6<1[8:1],{8}6/2,3-8[8:1],,3,{24}7,6,5,4,3,2,
{8}1-6[8:1],4>1[8:1],1,4,7<4[8:1],8v3[8:1],7,8,
{4}6h[8:3],{24}1,2,3,4,,,{8}8,8,{4}2b/6b,
{8}4/3,2,2,3/5,6,6,5/4,3,
3,6,{4}7-5[8:1]/1-5[8:1],7-3[8:1]/1-3[8:1],7/1,
8p4[8:1],{8}3/8,2q6[8:1],,2/7,{4}8-4[8:1],
{8}3,3,5,5,{16}4,6,{8}4,3/7,4,
5/6,7,7,6/4,3,3,4/5,6,
6,3,{4}2-4[8:1]/8-4[8:1],2-6[8:1]/8-6[8:1],2/8,
1q5[8:1],{8}6/1,7p3[8:1],,7/2,{4}1-5[8:1],
{8}6,6,4,4,{24}2,3,4,5,6,7,{4}8z4[8:1],
4b>5[1:1],B6,B5,B4,
B3,Ch[4:1],{32}E7,E8,E1,E2,{8}E3,6x,6x,
8b-4[8:1],1,8,2-5[8:1],5,2,6-1[8:1],4,
{2}6-8[8:1]*-2[8:1],{16}3,4,{8}3,5/2,6/1,
7b-3[8:1],8,7,4-1[8:1],5,4,8-4[8:1],2,
8,1,{4}1v4[8:1]*-3[8:1],1v6[8:1]*-7[8:1],1,
{8}4>1[8:1],4,5,6,7<4[8:1],7,8,1,
{4}1h[8:3],{24}8,7,6,5,,,{8}3,3,{4}6b/2b,
{8}5/4,3,3,4/6,7,7,5/3,2,
2,6,{4}7<5[8:1]/1-5[8:1],7-3[8:1]/1>3[8:1],7/1,
{8}4/5,6,6,5/3,2,2,4/6,7,
7,3,{4}2>4[8:1]/8-4[8:1],2-6[8:1]/8<6[8:1],2/8,
{8}4>6[16:3],4,{4}4b/6b,5<3[16:3],5b/3b,
4>6b[16:3],4b/6b,5<3b[16:3],5b/3b,
4>6b[16:3],4b/Cf,5<3b[16:3],5b/Cf,
4h[2:1],6,8-4b[8:1],8,
{8}3x,3x,5/2,5/2,4,4,6/2,6/2,
1,1-5[8:1],,8,{2}8w4[8:1],
{8}6x,6x,4/7,4/7,5,5,3/7,3/7,
8,8-4b[8:1],,1,{2}1w5b[8:1],
{8}7x/3x,7x/3x,6/2,6/2,1/5,1/5,4/8,4/8,
{16}4,3,2,1,8,7,6,5,{32}1,2,3,4,5,6,7,8,1,2,3,4,5,6,7,8,
{2}5/1-5[8:1],8-4[8:1]*-6[8:1],
{32}2,3,4,5,6,7,8,1,2-7[8:1],3,4,5,6-3[8:1],7,8,1,{8}2,6,{4}1bs5b[8:1],
{1}8b,
E
