&title=光焔のラテラルアーク
&artist=大国奏音
&first=0
&des_5=μ -Ascension of "Lateral Arc"
&lv_5=14+
&des=μ -Ascension of "Lateral Arc"
&inote_5=(220)
{1},,
{8}3,,4,,5,,6,,4h[4:3],,,,,,5,4,6,,5,,4,,3,,5h[4:3],,,,4,,3,,
{8}1>4[2:1]/5,,6,,7,,8,,8<5[2:1]/4,,3,,2,,1,,
{8}8q1>4[4:5]/5<8[4:3],,,,,,,,,,,,{16}7,8,1,2,3,4,5,6,
{8}3b-8[32:5],5,3,6h[8:3],,,2>5>2[32:11],38,12,8h[8:3],,,1-5[8:1],,17,,
{8}6-1[32:5],4,6,3h[8:3],,,7<4<7[32:11],61,87,1h[8:3],,,8-4[8:1],,2<3[4:5]b/8x,,
{8}2b,,,,,,,,8hx[8:5],,,,,3,3,,
{8}2b/4,3,4/6b,5,1b/4,3,8b/5,6,{16}2,5,2,5,3,6,3,6,4,5,6,7,8,1,2,3,
{16}8hb[4:1]/4b,,,,5,4,3,2,7,6,5,4,3,2,1,8,3b,7,3,7,3,7,3,7,3,7,2,6,1-5[8:1],5,1,5,
{48}1bx-7<5-3>1[2:3]b,B1,C1f,B5,,,{8},,,,,,,,,,,,,6,,
{8}6h[4:3],,,,,,3,,3h[8:3],,,4,,5,,5,6h[8:3],,,5,,4,,,3qq4[4:3],,,,,5,,,
{8}6,,,53,5h[4:1]/3h[4:1],,,46,4h[4:1]/6h[4:1],,,53,5h[4:1]/3h[4:1],,,47,
{8}4/7v4[8:1],,5,5>2[8:1],,8h[4:1],,,1bx/2bx,1bx/2bx,,8bx/7bx,8bx/7bx,,16,,
{8}52,5<8[4:1],,5,B6/B7,,3,,4,4>1[4:1],,4,B3/B2,,6,,
{8}5,5<8[4:1],,5,B7/B8,,2,,4,4>1[4:1],,4,B2/B1,,7,,
{8}6,6>3[4:1],,6,B5/B4,,2,,2,2>5[4:1],,2,B3/B4,,7,,
{8}6,6<1[4:1],,6,B8/B7,,4,,3,4,5,6,{16}8,7,8,7,6bx/1bx,,,,
{16}5h[4:1]/2,,,,4,3,2,1,8,5,6,7,18,2,3,4,6,5,7,4,8,3,1,2,7,6,5,4,3,2,1,8,
{16}3h[4:1]/7,,,,4,5,6,7,4,3,2,1,87,6,5,4,2,1,3,8,4,7,5,6,4,3,2,1,8,7,6,5,
{16}8h[4:1]/4,,,,2,3,4,5,1,8,7,6,54,3,2,1,7,8,6,1,5,2,4,3,5,6,7,8,1,2,3,4,
{16}15,2,3,4,15,2,3,4,15,8,7,6,15,8,7,6,45,3,2,1,87,6,5,4,15,26,37,48,1b/5b,,,,
{16}3bx/4bx,,4bx/5bx,,6,,{32}2x,E3,B3,B4,,,,,6x,E7,B7,B8,,,,,3x,E3,B2,B1,
{16}5bx,,6bx/4bx,,3,,{32}7x,E8,E1,A1,,,,,3x,E4,E5,A5,,,,,8x,E8,B7,B6,
{16}2bx,,1bx/3bx,,8,,{32}4x,E4,B3,B2,,,,,8x,E8,B7,B6,,,,,2x,E3,B3,B4,
{16}6bx,,5bx/7bx,,{12}2h[96:1],4h[96:1],3h[96:1],7h[96:1],5h[96:1],6h[96:1],3h[96:1],5h[96:1],4h[96:1],
{8}6pp1[1:1],,,,4,,3,,2>7[2:1],,,,8h[2:1],,,,
{8}1pp4[1:1],,,,5,,6,,7<2[2:1],,,,1h[2:1],,,,
{8}A3,A4,,A7,A6,,B1,C1,,,2x/B4/E4/A4,,7x/A6/B6/E6,,1x/B8/B7/E8,,
{8}3b/4b,2b/5b,,6b/5b,7b/4b,,1b/8b,7b/2b,,,6/4h[4:1],,2h[4:1],,8h[4:1],,
{8}5b-8[8:1],,2-6[8:1],,7-4[8:1],,1-5[8:1],,6x<1[8:1],,3x<6[8:1]/6x,,8x>3[8:1]/3x,,5x<8[8:1]/8x,,
{16}5b/4b,,2,1,3,,5,4,6,,1,8,2,,7,8,6,,4,5,3,,6,5,7,4,8,3,1,8,7,6,
{8}5/2b-5[8:1],,8-4[8:1],,3-7[8:1],,6-2[8:1],,4x>1[8:1],,7x<4[8:1]/4x,,2x<7[8:1]/7x,,5x>2[8:1]/2x,,
{16}6b/5b,,8,1,7,,3,4,2,,5,4,6,,8,7,1,,7,8,6,,4,5,3,6,2,7,1,2,3,4,
{16}6bx/5bx,,7,6,54,,1,2,34,,7b,,86,,1b/5b-1[8:1],,6,,3-8[8:1],,4b,,6-2[8:1]b,,7b,,3,,4hb[4:1],,,,
{16}8bx,,2,3,45,,8,7,65,,2b,,13,,8b/4b-8[8:1],,3,,6-1[8:1],,5b,,3-7[8:1]b,,2b,,6,,5hb[4:1],,,,
{16}8b,6,8,6,1,,1bV37[4:1],,7,,6,,6b,,,,5,4,5b,4,6,,6V84[4:1],,4b,,3,,3,,,,
{16}2bx,5,2,5,3x,6,3,6,4x,7,4,7,3x,8,3,8,
{24}2bx,3x,4x,8x,7x,6x,1x,2x,3x,7x,6x,5x,
{32}2b,3,4,5,6,7,8,1,2-6[8:1],3,4,5,6,7,8,1,
{32}2bx/7b-5-3-1[4:7]b*<1<5[4:11],C1f,,,,,,,{4},,,{1},,,
{8}8h[1:2]/1,,,2,2,,,3,3,,,4,4,,,5,5>2[4:5],,,,,,,,,,,,,,,,
{8}1h[1:1]/8,,,7,7,,,6,6,,,5,5,,,4,2h[1:1]/4q7[4:5],,,,,,,,,,,,,,,,
{8}B6h[1:1]/2,,,3,3,,,4,4,,,5,5,,,6,B3h[1:1]/6<3[4:3],,,,,,,,,,,,,,,,
{4}6h[4:3],7,B6,5,3h[4:3],4,B3,2,1V37[1:1],4,B5,6,7V13[4:3],6,B5,4,5V71[1:1],4,B3,2,1z5[4:3],2,A3,4,
{2}E4f/B3/B4,,,4/5h[2:1],7h[2:1],1h[2:1],
{8}8b>3[8:1]b,,8b/4b<7[8:1]b,,4b,,3hb[8:3],,,8b,,2b/6b,2bv5[8:1]b/6b-1[8:1]b,,2b/6b,,
{16}3b/7b,,6,5,7h[8:1],,1,8,2h[8:1],,5,4,6h[8:1],,3,4,2h[8:1],,8,1,7h[8:1],,2,1,3,8,4,7,5,4,3,2,
{8}1/6b-1[8:1],,6/2-5[8:1],,2/7-3[8:1],,7/1-5[8:1],,1x/6x<1[8:1]b,,6x/3<6[8:1]b,,3x/8>3[8:1]b,,8x/5<8[8:1]b,,
{16}4b/5b,,2,1,3h[8:1],,7,8,6h[8:1],,1,8,2h[8:1],,4,3,5h[8:1],,3,4,2h[8:1],,8,1,7,2,6,3,5,6,7,8,
{16}1bx/4bx,,28,37,46,,28,37,46,,7b<4[8:1],,1,,7b,,3-8[8:1],,2,,7b-4<6-1[8:3],,6,,2bv5[8:1]b,,3,,2b,,,,
{16}4bx/8bx,,71,62,53,,71,62,53,,2b>5[8:1],,8,,2b,,6-1[8:1],,7,,2b-5>3-8[8:3],,3,,7bv4[8:1]b,,6,,7b,,,,
{24}5bx,6,7,1x,2,3,{8}4x-8-3[4:1]/8x,7bx,7,6,6b,,
{24}4x,3,2,8bx,7,6,{8}5x-1-6[4:1]/1x,2x,2b,3,3,,
{16}2bx,5,3,4,2x,5,3,4,2x,5,1,6,8x,7,1,6,
{32}2bx,3x,4x,5x,6x,7x,8x,1x,2x,3x,4x,5x,6x,7x,8x,1x,2x/6b,5,4,3,2,1,8,7,6,5,4,3,2,1,8,7,
{32}1bxp8[4:7]b/6b<1>1[4:13],B1,C1f,B5,{8},,,,,,,{1},,,
{8}56,56,56,4/7h[8:3],,,8,8<2[8:5],8,8,,,B2/B3,,B6/B5,,
{8}43,43,43,5/2h[8:3],,,1,1>7[8:5],1,1,,,1-5[8:1],,,,
{16}3/8b,,6,,13,,5,,6h[96:1],4,8h[96:1],,1/7b,,5,,28,,4,,7-4[8:1],5,6,,7b-3[8:1]/3,,3,,7b/2,,2,,
{16}6/1b,,2,,86,,4,,3h[96:1],5,1h[96:1],,8/2b,,4,,71,,5,,2,4,3,,1bw5[8:1],,,,1b<3[4:5],,,,
{8}1bx,,,,,,,,7h[8:5],,,,,2,2,,
{24}8b,7,6,{16}2h[8:1],,{24}7b,6,5,{16}1h[8:1],,{24}6b,5,4,{16}8h[8:1],,{24}5b,4,3,{16}7h[8:1],,
{16}4b,3,2,1,8/3b,2,1,8,7/2b,1,8,7,6/1b,8,7,6,
{16}8hb[4:1],,,,5,6,7,8,15,26,37,48,1,2,3,4,1b,6,8b,7,2b,4,3b,5,
{32}2b,3,4,5,6,7,8,1,2/6b,5,4,3,2,1,8,7,
{32}6/1bV36>5-3>1[4:13]*V74<5-7>1[4:13]b,B1,B8/B2,C1f,B5,A5,,,{4},,,
{1},,,
(160)
{4}E3,E5,E4,E7,E3,E8,E2,E1,
(80)
{16},,,,2,5-8>3[2:3],1-4<7[16:23],4,8,
E
