&title=上面的大狗
&artist=bbben_
&first=0.04
&des=心白-HW
&lv_5=13
&des_5=心白-HW
&inote_5=(133){4}E1/E2/E6/E5/A5h[4:1]/A1h[4:1],{32},,,,,,,,1x/5xw1[8:1],2/6,3/7,8/4,,,,,{4}5b,
{8}7<3[8:1],{16}8,8,{8}7,8,8V64[8:1],{16}1,1,{8}8,1,
1-3[8:1],1-7[8:1],1x-5[8:1],1x,{4}1x,{48}D5,A4,D4,A3,{24}D3,2x-6[8:1],,,{8}6x-2[8:1],
,,8x-4[8:1],4x-7[8:1],,,2-6[8:1],
8-4[8:1],2,{4}8pp2b[8:1],8xqq6b[8:1],8x,
{8}1>5[8:1],{16}8,8,{8}1,8,8V24[8:1],{16}7,7,{8}8,7,
7x-3[8:1],4xv1[8:1],7xv6[8:1],4x,{4}7x,{8}B1,8x/2x,
7x/4x,{24}6,5,6,{8}5,1/7,2/5,{16}3-8[8:1],4,{8}4,5/3,
{16}7h[8:1],,,2h[8:1]/5h[8:1],,,{8}8h[16:1]/4h[16:1],{4}A6f/A7/B7/E7/D7/B6/E6/D6/A5/D8/E8,A3f/B2/B3/E4/A4/D4/D3/A2/E3/D2/E2,
{8}8v5[8:1]*v6[8:1],7/1,{4}8v3[8:1]*v2[8:1],8v5[8:1]*v6[8:1],8v3[8:1]*v2[8:1],
8v5[8:1]*v6[8:1],8v3[8:1]*v2[8:1],8v5[8:1]*v6[8:1],8,
7-2[8:1]/3-6[8:1],3/7,2-7[8:1]/6-3[8:1],6/2,
1-4<6>4-1[2:1],8,7,6,
{1}1/5w1[8:5],
{2}Ch[2:1],{64}B6`B2,B7`B3,B8`B4,E1`E5,{4},{16},,,{8}1q5[8:1],
1,{16}6,7,{8}8<3[4:1],,2b,{4}1b,
{8}2q6[8:1],2,{16}7,8,{8}1<4[4:1],,3b,{4}2b,
2x-6[8:1],2x/8x-4[8:1],{16}8x/5x>2[16:1],,,5x<8[16:1],,,{8}5x,
{16}1,2,3,4,1,8,7,6,4,3,2,1,4,5,6,7,
{4}8x<6[8:1],{16}4,3,{8}2h[8:3],,,{4}E4,
1x>3[8:1],{16}5,6,{8}7h[8:3],{16},,,,E6,B5,B4,E4,
{4}2x-6[8:1],2x/8x-4[8:1],{16}8x/5x>2[16:1],,,5x<8[16:1],,,{8}5x,
{48}1b,2x,3x,4x,,,,,,,,,8b,7x,6x,5x,,,,,,,,,1b,2x,3x,4x,{12}5x,{48},,,,8b,7x,6x,5x,{6}4x,
{16}2x-5[8:1],,,4,,,{8}4,5x-2[8:1],{16}7,7,,,{8}7,
{48}1b/8b,2x,3x,4x,,,,,,,,,8b/1b,7x,6x,5x,,,,,,,,,8b/1bs5[8:1]*z5[8:1],2xh/7xh,3xh/6xh,4xh/5xh,{4},{16},,{24},{4}2x-6[8:1],
2x/8x-4[8:1],{16}8x/5x>2[16:1],,,5x<8[16:1],,,{8}5xw1[16:5],
E
