&title=张顺:飞在八分前
&artist=DJmxn
&first=-0.28
&lv_6=15
&des_6=DJotto
&inote_6=
(126.84){4},{8}4-6v7-1-7v6-4[4:3],8,3,{48}1,{12},{48}B2/B3,C,E7f,{16},,,{48}B2/B3,
C,E7f,{12},{8}3h[2:1],,5p1[32:13],5q1b[32:9],5p1[8:1]*q1[8:1],5,{48}5,B6/B5/B4/B3,Cf,B1/B8,{4},{24},{8}5-3v2-8-2v3-5[4:3],
1,6,8,{48}B7/B6,C,{24}E3f,{6},{48}B7/B6,
C,{24}E3f,,{8}6h[2:1],,4q8[32:13],4p8b[32:9],4q8[8:1]*p8[8:1],4,{48}4b,B3/B4/B5/B6,Cf,B8/B1,{4},{24},{8}5-7v8-2-8v7-5[4:3],
1,4,{48}2,{12},{48}B3/B4,C,E8f,{16},,,{48}B3/B4,
C,E8f,{12},{8}4h[2:1],,6p2[32:13],6q2b[32:9],6p2[8:1]*q2[8:1],6,{48}6b/B7/B6/B5/B4,Cf,{12}B2/B1,
{4},{8}3-5v6-8-6v5-3[4:3],7,2,8,{48}B1/B2,C,{24}E6f,{6},{48}B1/B2,
C,{24}E6f,,{8}2h[8:3],,4<8[16:3],4>8b[16:1],4,{64}4bx,A3/A5,A2/A6,A1/A7,{32}A8f,E8/B8/E1,{8},{4}E8/B8/E1/B7/B1/C/A8f,
{8}1-4[8:5],8-5[8:5],1-4[16:5],1-4b[16:3],8-5[16:3],8-5b[16:1],
1b,8b,,5-8[8:5],4-1[16:5],4-1b[16:3],5-8[16:3],5-8b[16:1],
4b,5b,1-4[8:5],8-5[8:5],1-4[16:5],8-5[16:5],1-4b[16:1],8-5b[16:1],
1b,8b,,5-8[8:5],4-1[16:5],5-8[16:5],4-1b[16:1],5-8b[16:1],
4b,5b,2x-5[8:5],1x-6[8:5],2x-5[16:5],2x-5b[16:3],1x-6[16:3],1x-6b[16:1],
2bx,1bx,,4x-7[8:5],3x-8[16:5],3x-8b[16:3],4x-7[16:3],4x-7b[16:1],
3bx,4bx,6x-1[8:5],5x-2[8:5],6x-1[16:5],6x-1b[16:3],5x-2[16:3],5x-2b[16:1],
6bx,5bx,,8x-3[48:29],7x-4[16:5],7x-4b[16:3],8x-3[16:3],8x-3b[16:1],
7bx,8bx,6b-4[8:1],{16}2,2,{8}6,1h[8:1],8-6[8:1],{16}3,3,
{8}8,2bh[8:3],4b,8b,4b,1b/8b,5b/6b,1b/8b,
3b/4b,7b,2v5[16:3],{16}8,8,{8}2,1,8qq4[8:3],1-3[4:1],
5,1,{4},{8}7b/1b,5b/4b,3b/2b,5b/7b,
4b/3b,2b/8b,6/5,{16}7,7,{8}3-1<7-5-7-1-3[2:1],4/5,{4}3/4,
{8}4h[4:1],{4},{8}4pp6pp8pp2pp4[32:7],C,C,{4}Cf,
{8},{16}4,5,{8}3/6,{16}5,4,6v3[8:1]/3v6[8:1],{4},{8},{32}7,3,
8,4,1,5,2,6,2,6,2,6,1/5,4/8,3/7,2/6,1/5,8/4,{48}7/3b-7[16:1],6,5,4,3,2,1,8,7,6,5,4,{32}1b>8[16:3]/3b<8[16:3],Cf,{4},,{16},{48}1/2,
3/8,4/7,6h[16:1]/5h[16:1],{16},{48}7/4,8/3,1h[16:1]/2h[16:1],{6},{48}7/8,6/1,2/5,3h[16:1]/4h[16:1],{16},{48}5/2,6/1,7/8,{24},{48}8/1,
7/2,6/3,4h[16:1]/5h[16:1],{16},{48}6/3,7/2,1h[16:1]/8h[16:1],{6},{48}2/1,3/8,4/7,5h[16:1]/6h[16:1],{16},{48}7/4,8/3,2h[16:1]/1h[16:3],{16},{48}3,4,5h[16:3],{16},{48}8,7,6h[16:3],{16},{48}4,3,2h[16:3],{16},{48}7,
8,1h[16:1],{16},{48}3/8,4/7,5/6,{6},{48}4,4,,6,6,,3,3,{12},{48}7,7,{12},{48}2,2,{12},{48}8,8,{12},{48}1,
1,{12},{48}1,2,3,4,5,6,{8}7bxs3[8:5],8b,8b,8b,8b,8b,
8b,{4},{24}7,6,5,1,8,7,3,2,1,5,4,3,7,6,5,
1,2,3,8,7,6,2,3,4,7,6,5,{48}6/2,3/7,8/4,5/1,{24}6/2,3xv2[8:1]*<4v1-7[8:1],{12},{8}5,3,
,5v4[8:1]/4v5[8:1],{4}5h[8:1]/4h[8:1],{8},4-1[2.6017##0.2365],4-2[2.3652##0.2365],5-8b[2.1287##0.2365]*q1b[2.1287##0.2365],
5w1b[1.8921##0.2365],4w8[1.6556##0.2365],5w1[1.4191##0.2365]*w1[1.4191##0.2365],4-8[1.1826##0.2365],5-7[0.9461##0.2365],4-7[0.7096##0.2365],{4}5-1[8:1],
{8}4b/5b,{2},{8}3h[8:1],{4}2h[8:1],
3h[8:1],4h[8:1],5h[8:1],6h[4:1],
{8},{24}1,2,3,4/8h,5,6,7,8,1,2,3,4,5,6,7,8/4h,1,2,3,4,5,
6,7,8,1,2,3,{32}4/8h,7,6,5,4,3,2,1,8/3h,7,6,5,4,3,2,1,8/2h,7,6,5,4,3,2,1,
8b,7,6,5,{8}4b-8-4pp6b[2:1]/3b-7-3qq1b[2:1],{4}5,{2},{32}2b,
3,4,5,6b,5,4,3,{4},{32}7b,6,5,4,3b,4,5,6,{4},{8}8b,
{24}4,6,4,6,3,7,3,7,2,8,2,8,1,1,1,1,1,1,1,1,1,
1,1,1,1,1,1,1,1,1,1,1,1,1q5[8:1]*p5[8:1],1,1,1,1,1,{4}1,
,Cf,{8},5/4,1/7,{16}3,4,
{8}2/5,7/8,5q4<5[8:3]/4p5>4[8:3],2/8,{2}5/4,
{8}7>3v5[4:1],6,5,4,3,2,4pp4[4:1]*qq4[4:1],1h,
4,{2},{64}3/E4f,3,5,4,{16},{64}8/E8f,8,6,7,{4},{24},{48}1x,
{64}1x/E2,3x,{32}2x,{24},{48}7x,{64}7x/E7,5x,{32}6x,{16},{48},,1x,{192}1x/E2,{96},{192}3x,{96},{32}2x,{24},{48}7x,{192}7x/E7,{96},{192}5x,{96},{32}6x,{8}3/4,1/7,{16}3,4,
{8}2/5,7/8,6/5,{16}2,1,{8}3q6[32:7]/8p5[32:7],4/5,{4}8/3,
{8}4,7,3/6-3[8:1],{16}5,5,{8}6,2h[8:5],,1b,
1b,1b,{4}1b,{48}8b/1b,2b/7b,3b/6b,4b/5b,{4},{24},{32}2b,Cf,7b,Cf,
1b,Cf,8b,Cf,2b,Cf,7b,Cf,1b,Cf,{48}8b,{96}B8,Cf,{48}B4,{4},{8}4b/5b,8b/2b,{16}6,5,
{8}7b/4b,2b/1b,4bp5>4[8:3]/5bq4<5[8:3],7b/1b,{2}4b/5b,
{8}3/4,1/7,5/4,5/6,7/8,6/5,4/5h[2:1],{48}3,2,1,8,{24},{48}8,
1,2,3,{24},{48}3,2,1,8,{24},{48}8,1,2,3,4,5,6,7,8,1,2,3,4,5,6,7,8,1,2,3,4,5,6,7,8/6h,5,4,3,2,1,8,7,6,5,4,3,
2,1,8,7,6,5,4,3,2,1,8,7,{4}6p3[16:3],6,{8}1s5v7[16:5],5h[8:3],
{2},{8}6qq1[16:3]/4pp1[16:3],7,{4},{8}3/7,
3/7,{4}2/6,2/6,1/5,
{8}1/5,4/8,{4}8/4,{32}7/3,8,1,2,{8},{32}3,2,1,8,{8},{64}1,
2,3,4,5,6,7,8,1,2,3,4,5,6,7,{128}8,1,{32}2,1,2,1,2,1,2,1,3,8,3,8,3,8,3,8,4,7,4,7,4,7,4,7,
5,6,5,6,5,6,5,6,8,7,8,7,8,7,8,7,1,6,1,6,1,6,1,6,2,5,2,5,2,5,2,5,
3,4,3,4,3,4,3,4,2,1,2,1,2,1,2,1,3,8,3,8,3,8,3,8,4,7,4,7,4,7,4,7,
5,6,5,6,5,6,5,6,{8},{48}1/5,2/6,3/7,4/8,5/1h[24:7],6,7,8,,2,3,4,5,6,7,8,2,3,{4}4,
{8},{64}1,2,3,4,5,6,7,{128}8,1,{32}2,1,2,1,2,1,2,1,3,8,3,8,3,8,3,8,4,7,4,7,4,7,4,7,
5,6,5,6,5,6,5,6,8,7,8,7,8,7,8,7,1,6,1,6,1,6,1,6,2,5,2,5,2,5,2,5,
3,4,3,4,3,4,3,4,2,1,2,1,2,1,2,1,3,8,3,8,3,8,3,8,4,7,4,7,4,7,4,7,
5,6,5,6,5,6,5,6,{8}4b,{16}8b,3b,,7b,{32}2b,{16},{32}6b,{4},,,{48}8/1,
7/2,3/6,4/5,{12}2/1b,
