&title= Time to beat the odds
&artist=影虎
&first=-0.66999966
&des=好想和Dororo合作啊
&des_5=好想和Dororo合作啊
&lv_5=14
&inote_5=(160)
{1},
{16}Ch[4:1],,,,
{32}E1,E2,E3,E4,E5,,,,
{16}6x-8[8:1]/5x-1[8:1],,7,,,,,,8h[8:1]/1h[8:1],,,8h[8:1]/1h[8:1],,,81,,7h[8:1]/5h[8:1],,,6h[8:1]/4h[8:1],,,5h[8:1]/3h[8:1],,,2h[8:1]/4h[8:1],,,81,,,,
{16}1,8,1,8,1,8,1,8,1,7,4,5,2,8,5,6,4-7b[8:2]*p1[4:2]/Cf,,,,,,,,,,,,8b,,,,78,,6,,5,4,5,,3-8[8:1],,4-7[8:1],,3,,4,,1,,81,,7,5,6,4,7,6,5,4,3,2,1,8,7v5[8:1]/4h[4:1],,,,,,,,6h[8:2]/2v8[8:1],,,,,,,,7,8,7,,16,,7,8,7,,5,3h[8:1],,4,2h[8:1],,1,,21,,4,5,4,,6-1[8:1],,5-2[8:1],,6,,5,,1,,81,,2,4,3,5,2,3,4,5,6,7,8,1,2v4[8:1]/8h[4:1],,,,,,,,5v7[8:1]/3h[8:2],,,,,,,,2,1,2,,83,,2,1,2,,7,5h[8:1],,6,4h[8:1],,5b-8[8:1],,,,5/3h[8:4],,,,E1/B1,,,,7,,7,6,5h[4:2],,,,B5/E5,,,,3b,,,6b/5b,,,8b/2b,,82,,
E8,E7,E6,E2,E3,E4,D8,D7,D6,D2,D3,D4,,,6b/5b,,,4b/2b,,,8b/1b,,,7b/5b,,,B3/E4,,B6/E6,,42,,2,,28,,2,,26,,2,,2,4,3,,53,,5,,51,,5,,57,,5,,5,4,6,,8,7,8,7,1,6,1,6,
{32}1,2,3,4,5,6,7,8,1,2,3,4,5,6,7,8,
{4}1-5[8:1],5qq1[8:3]*pp1[8:3],,,
{16}8,7,6,5,7,6,5,4,5v8[8:1]/3v8[8:1],,6,,,,,,1,1,7,8,6,6,8,7,8v1[8:1],1,2,3,4,,,,3,3,1,,8,8,2,,7-4[8:1]/5,,8/3-7[8:1],,7,,3,,4-6[8:1]*-2[8:1],,4,,,,,,7/8b,7b/8,,1/6b,,,
78,,71,6,5,4,3,2,1,8,7h[8:1]/5h[8:1],,,,5,6,4,,1<5[8:1]/2,,8-3[8:1]/3,,,,,,5,5,4,6,5,7,5,6,4,,53,53,,78,,12,,64,,75,7<8z4[8:4]/5,,8,,7/3h[4:2],,,,,,,,,,,,2,4,3,5,4V28v5-3[4:3],,,,6h[16:1],,6h[16:1],,6h[16:1],,6h[16:1],,6h[16:1],,6h[16:1],,6,,71,,8,2,1,3,2p6<8[8:2],,3,,3,,2,,
{24}2,3,4,5,6,7,8,1,2,3,4,5,
{16}6/8b,,,7/5b,,,6b/4,,7,6,7,5,6,,3,4,3,5,4,,E8/E1/E2/C/E5/B2,,,,1x-5[8:1],,8x-4[8:1],,1x-3[8:1],,8x-6[8:1],,1,,8,,
{24}E6/D6,E2/D2,E8/D8,E4/D4,,,
{8}7x-5[8:1],3x-1[8:1],7x-1[8:1],3x-5[8:1],7,3,
{24}B6/A6,B2/A2,B8/A8,B4/A4,,,
{8}8x-4[8:1],2x-5[8:1],8,2,
{24}8,7,6,5,8,7,6,5,1,2,3,4,1,2,3,84,,,E7/D7,E3/D3,E1/D1,E5/D5,,,7x-4[8:1]/3x-8[8:1],,,1x/5x,,,7x/3x,,,,,,
{32}8bxqq6[8:2]*pp2b[8:2],B8,Cf,B4,A4,,,,
{8},,,5,5,5h[8:3],,,,
{16}3,4,3h[8:1],,4h[8:1],,5h[8:1],,6h[8:1],,5,7,5,7,4,6,4,6,2,4,3,5,4,6,5,7,1,8,3,5,4,6,1,8,2-6[8:1],,,,,,,,5,5,4,,5/6-3[8:1],,7,,8,,8,,5,5,4,,6v3[8:1]/5,,7,,8,,8,,1h[8:1],,2h[8:1],,3h[8:1],,4h[8:1],,5qq1[8:3],,,,,,7,6,5<4<1[8:6],,,,,,1,2,3h[4:2],,,,,,,,,,,,,,,,5V73-8[8:4]/4h[4:3],,,,,,,,,,,,,,,,7,4,
{24}6,5,6,
{16}4,7,
{24}6,5,6,
{16}4,7,
{24}6,5,6,
{16}4,7,,,5h[8:6]/2qq3[4:2],,,,,,,,,,,,,,,,
2,5,
{24}3,4,3,
{16}2,5,
{24}3,4,3,
{16}2,5,
{24}3,4,3,
{16}2,,,,6,6,5,,
{32}8/4h[8:1],7,6,5,,,,,3,,3,,5,,,,6h[8:1]/1,2,3,4,,,,,7,,7,,5,,,,8/2h[8:1],7,6,5,,,,,2,,2,,4,,,,1/7h[8:1],2,3,4,,,,,7,,8,,7,6,5,,2,,1,,2,3,4,,8,,1,,8,7,6,,1,,8,,1,2,3,,
{24}8,7,6,5,4,3,2,1,8,7,6,5,
{32}41,2,3,4,5,6,7,8,1,2,3,4,5,6,7,8,1b-5[8:1],,,,,,,,
{4}5V71v4b[8:3],,,
{32}1b,2,3,4h[32:5],,,,,Cf,,,,,,,,
{8}8w4[8:1],62,8b,,
{16}3b/5,,2,4,3,5,4,,75,,7,5,6,4,5,,1,7,3,4,2,1,4,6,5,7,8,5,4,1,2,,83,,7,5,6,4,5,,24,,,81,,,7,5,6,1,8,2,4,7,8,6,4,1,2,,5,3,4,,53,,2,4,3,5,4,,75,,,21,,,8,1,7,5,6,1,8,3,4,2,8,5,7,2,1,,38,,8b<5[8:1]/3b,,4,4,8,,,,5b/2b>5[8:1],,7,7,2,,,,Ch[4:3],,,,,,,,,,,,B6/B3/E1,,,,64,,6,5,7<4[8:1],,81,,7>2[8:1]/3,,3,,37,,3,,3,1,2,8,1,7,8,6,4w8[8:1],,53,,4,,,,78,,3,4,2>5[8:1],,81,,6/2<7[8:1],,6,,6/2,,6,,6,8,7,1,8,2,1,3,5-8[8:1]*-2b[8:1],,64,,5,,,,1,8,2,7,3,6,4,5,8,7,1,6,2,5,3,4,2,4,3,4,1,5,4,5,8,1,2,3,8,7,6,5,2,2,4,3,5,5,4,5,3,3,5,4,
{32}8,7,6,5,4,3,2,1,8<1[8:3],,,,,,,,C,,,,,,,,
{16},,,,8b/4b,,,,7/5x,,6,5,7,5,7,,8h[8:1]/4h[8:1],,,6h[8:1]/5h[8:1],,,24,,7,7,5,6,3,3,5,4,6,6,4,5,3b,,,,
{24}4,5,4,5,4,5,4,5,4,5,4,5,
{32}4,3,2,1,8,7,6,5,4,3,2,1,8,7,6,5,
{16}84,,1bh[8:1]/2h[8:1],,,7bh[8:1]/5h[8:1],,,3h[8:1]/4bh[8:1],,,8bh[8:1]/2h[8:1],,,81,,
{32}8b/1b,72,63,54,
E
